Вы используете незарегистрированную версию компонента "Вкладки"!

Поиск

(Experimental, Free Improvisation, Sound Aspects) Chris Brown, Larry Ochs, William Winant - Room - 1989, FLAC (tracks+.cue), lossless

(Experimental, Free Improvisation, Sound Aspects) Chris Brown, Larry Ochs, William Winant - Room - 1989, FLAC (tracks+.cue), lossless
Треклист:
Chris Brown, Larry Ochs, William Winant / Room
Жанр: Experimental, Free Improvisation, Sound Aspects
Страна-производитель диска: Germany
Год издания: 1989
Издатель (лейбл): Sound Aspects
Номер по каталогу: SAS CD 028
Аудиокодек: FLAC (*.flac)
Тип рипа: tracks+.cue
Битрейт аудио: lossless
Продолжительность: 1:09:57
Источник (релизер): Max Monteiro
Наличие сканов в содержимом раздачи: да
Треклист:
1. Some of the Part (Larry Ochs) 7:10
2. Snake Charmer 1 (Chris Brown) 7:47
3. Lobster Time (Larry Ochs) 9:35
4. Postmortem (Chris Brown) 16:38
5. Snake Charmer 2 (Chris Brown) 6:21
6. Edgetime (Larry Ochs) 14:31
7. The Match (Steve Lacy) 7:54
Recorded December 1987 at Mills College Center for Contemporary Music, Oakland, California.
« The Match » recorded December 1986.
Chris Brown – Piano, Percussion Piano, Electronics Design and Programming
Larry Ochs - Tenor and Sopranino Saxophones
William Winant – Vibraphone and Percussion
Scot Gresham-Lancaster – Electronic Operation and mix on 2, 4, 5 + 6
 
Лог создания рипа
Exact Audio Copy V1.0 beta 3 from 29. August 2011
EAC extraction logfile from 29. August 2013, 18:52
Chris Brown, Larry Ochs, William Winant / Room
Used drive : SlimtypeeNAU508 5 Adapter: 1 ID: 0
Read mode : Secure
Utilize accurate stream : Yes
Defeat audio cache : Yes
Make use of C2 pointers : No
Read offset correction : 6
Overread into Lead-In and Lead-Out : No
Fill up missing offset samples with silence : Yes
Delete leading and trailing silent blocks : No
Null samples used in CRC calculations : Yes
Used interface : Native Win32 interface for Win NT & 2000
Gap handling : Appended to previous track
Used output format : User Defined Encoder
Selected bitrate : 768 kBit/s
Quality : High
Add ID3 tag : No
Command line compressor : C:\Program Files (x86)\Exact Audio Copy\Flac\flac.exe
Additional command line options : -8 -V -T "ARTIST=%artist%" -T "TITLE=%title%" -T "ALBUM=%albumtitle%" -T "DATE=%year%" -T "TRACKNUMBER=%tracknr%" -T "GENRE=%genre%" -T "PERFORMER=%albuminterpret%" -T "COMPOSER=%composer%" %haslyrics%--tag-from-file=LYRICS="%lyricsfile%"%haslyrics% -T "ALBUMARTIST=%albumartist%" -T "DISCNUMBER=%cdnumber%" -T "TOTALDISCS=%totalcds%" -T "TOTALTRACKS=%numtracks%" -T "COMMENT=%comment%" %source% -o %dest%
TOC of the extracted CD
Track | Start | Length | Start sector | End sector
---------------------------------------------------------
1 | 0:00.32 | 7:10.30 | 32 | 32311
2 | 7:10.62 | 7:46.55 | 32312 | 67316
3 | 14:57.42 | 9:35.35 | 67317 | 110476
4 | 24:33.02 | 16:38.13 | 110477 | 185339
5 | 41:11.15 | 6:21.00 | 185340 | 213914
6 | 47:32.15 | 14:31.05 | 213915 | 279244
7 | 62:03.20 | 7:54.25 | 279245 | 314819
Track 1
Filename C:\EAC rips\01 - Some of the Part.wav
Pre-gap length 0:00:02.32
Peak level 69.2 %
Extraction speed 1.3 X
Track quality 100.0 %
Test CRC 0939D9DA
Copy CRC 0939D9DA
Accurately ripped (confidence 2) [56DEA98E] (AR v1)
Copy OK
Track 2
Filename C:\EAC rips\02 - Snake Charmer 1.wav
Pre-gap length 0:00:04.50
Peak level 56.6 %
Extraction speed 1.6 X
Track quality 100.0 %
Test CRC 3246AE39
Copy CRC 3246AE39
Accurately ripped (confidence 2) [C2C179E9] (AR v1)
Copy OK
Track 3
Filename C:\EAC rips\03 - Lobster Time.wav
Pre-gap length 0:00:04.30
Peak level 54.3 %
Extraction speed 1.8 X
Track quality 100.0 %
Test CRC F277221E
Copy CRC F277221E
Accurately ripped (confidence 2) [A5C4A12C] (AR v1)
Copy OK
Track 4
Filename C:\EAC rips\04 - Postmortem.wav
Pre-gap length 0:00:03.65
Peak level 55.8 %
Extraction speed 2.2 X
Track quality 100.0 %
Test CRC 99E65621
Copy CRC 99E65621
Accurately ripped (confidence 2) [AA3269E5] (AR v1)
Copy OK
Track 5
Filename C:\EAC rips\05 - Snake Charmer 2.wav
Pre-gap length 0:00:08.10
Peak level 55.7 %
Extraction speed 2.2 X
Track quality 100.0 %
Test CRC 154E4C21
Copy CRC 154E4C21
Accurately ripped (confidence 2) [64FA8A37] (AR v1)
Copy OK
Track 6
Filename C:\EAC rips\06 - Edgetime.wav
Pre-gap length 0:00:05.24
Peak level 57.5 %
Extraction speed 2.5 X
Track quality 100.0 %
Test CRC EFD99262
Copy CRC EFD99262
Accurately ripped (confidence 2) [B8DCAD9C] (AR v1)
Copy OK
Track 7
Filename C:\EAC rips\07 - The Match.wav
Pre-gap length 0:00:04.08
Peak level 56.7 %
Extraction speed 2.6 X
Track quality 100.0 %
Test CRC 78738076
Copy CRC 78738076
Accurately ripped (confidence 2) [C3F985DC] (AR v1)
Copy OK
All tracks accurately ripped
No errors occurred
End of status report
---- CUETools DB Plugin V2.1.4
[CTDB TOCID: Rcmabt.5HHrMFoggjn_MUxT2wR8-] disk not present in database
Submit result: La demande a été abandonnée : La demande a été annulée.
==== Log checksum EBEAD2E86CDB6858B97EA8B6316AE3DE5D614913B746CE2151025F53D083DFBB ====
 
Содержание индексной карты (.CUE)
REM GENRE Jazz
REM DATE 1989
REM DISCID 6A106507
REM COMMENT "ExactAudioCopy v1.0b3"
PERFORMER "Chris Brown, Larry Ochs, William Winant"
TITLE "Room"
FILE "01 - Some of the Part.wav" WAVE
TRACK 01 AUDIO
TITLE "Some of the Part"
PERFORMER "Chris Brown, Larry Ochs, William Winant"
PREGAP 00:00:32
INDEX 01 00:00:00
TRACK 02 AUDIO
TITLE "Snake Charmer 1"
PERFORMER "Chris Brown, Larry Ochs, William Winant"
INDEX 00 07:05:55
FILE "02 - Snake Charmer 1.wav" WAVE
INDEX 01 00:00:00
TRACK 03 AUDIO
TITLE "Lobster Time"
PERFORMER "Chris Brown, Larry Ochs, William Winant"
INDEX 00 07:42:25
FILE "03 - Lobster Time.wav" WAVE
INDEX 01 00:00:00
TRACK 04 AUDIO
TITLE "Postmortem"
PERFORMER "Chris Brown, Larry Ochs, William Winant"
INDEX 00 09:31:45
FILE "04 - Postmortem.wav" WAVE
INDEX 01 00:00:00
TRACK 05 AUDIO
TITLE "Snake Charmer 2"
PERFORMER "Chris Brown, Larry Ochs, William Winant"
INDEX 00 16:30:03
FILE "05 - Snake Charmer 2.wav" WAVE
INDEX 01 00:00:00
TRACK 06 AUDIO
TITLE "Edgetime"
PERFORMER "Chris Brown, Larry Ochs, William Winant"
INDEX 00 06:15:51
FILE "06 - Edgetime.wav" WAVE
INDEX 01 00:00:00
TRACK 07 AUDIO
TITLE "The Match"
PERFORMER "Chris Brown, Larry Ochs, William Winant"
INDEX 00 14:26:72
FILE "07 - The Match.wav" WAVE
INDEX 01 00:00:00
Any questions -> support@pro-jazz.com. По всем вопросам пишите -> support@pro-jazz.com
17:43
152
Нет комментариев. Ваш будет первым!