Вы используете незарегистрированную версию компонента "Вкладки"!

Поиск

(Free Improvisation, Avant-Garde Jazz) WD-41 + 2 (w/ J.A. Deane, Scott Amendola) - Temi Per Cinema - 2010, FLAC (tracks+.cue), lossless

(Free Improvisation, Avant-Garde Jazz) WD-41 + 2 (w/ J.A. Deane, Scott Amendola) - Temi Per Cinema - 2010, FLAC (tracks+.cue), lossless
Треклист:
WD-41 + 2 (w/ J.A. Deane, Scott Amendola) / Temi Per Cinema
Жанр: Free Improvisation, Avant-Garde Jazz
Страна-производитель диска: US
Год издания: 2010
Издатель (лейбл): WD-41 self-released CD-R
Номер по каталогу: WD4102
Страна: US
Аудиокодек: FLAC (*.flac)
Тип рипа: tracks+.cue
Битрейт аудио: lossless
Продолжительность: 56:03
Источник (релизер): свой фирменный диск
Наличие сканов в содержимом раздачи:
Треклист:
1. U-5 7:13
2. BB-2 5:07
3. Q-1 7:39
4. W-1A 3:21
5. W-5 7:28
6. W-1B 2:19
7. T-6 4:55
8. AA-5 5:41
9. Q-2 7:19
10. AA-4 5:04
 
Лог создания рипа
Exact Audio Copy V1.0 beta 3 from 29. August 2011
EAC extraction logfile from 31. August 2013, 19:52
WD-41 + 2 / Temi Per Cinema
Used drive : PIONEER DVD-RW DVR-115D Adapter: 0 ID: 0
Read mode : Secure
Utilize accurate stream : Yes
Defeat audio cache : Yes
Make use of C2 pointers : No
Read offset correction : 48
Overread into Lead-In and Lead-Out : No
Fill up missing offset samples with silence : Yes
Delete leading and trailing silent blocks : No
Null samples used in CRC calculations : Yes
Used interface : Installed external ASPI interface
Gap handling : Appended to previous track
Used output format : User Defined Encoder
Selected bitrate : 896 kBit/s
Quality : High
Add ID3 tag : No
Command line compressor : C:\Program Files\Exact Audio Copy\FLAC\FLAC.EXE
Additional command line options : -6 -V -T "ARTIST=%artist%" -T "TITLE=%title%" -T "ALBUM=%albumtitle%" -T "DATE=%year%" -T "TRACKNUMBER=%tracknr%" -T "GENRE=%genre%" -T "COMMENT=%comment%" -T "BAND=%albuminterpret%" -T "COMPOSER=%composer%" %haslyrics%--tag-from-file=LYRICS="%lyricsfile%"%haslyrics% -T "DISCNUMBER=%cdnumber%" -T "TOTALDISCS=%totalcds%" -T "TOTALTRACKS=%numtracks%" %hascover%--picture="%coverfile%"%hascover% %source% -o %dest%
TOC of the extracted CD
Track | Start | Length | Start sector | End sector
---------------------------------------------------------
1 | 0:00.00 | 7:13.11 | 0 | 32485
2 | 7:13.11 | 5:07.12 | 32486 | 55522
3 | 12:20.23 | 7:35.74 | 55523 | 89721
4 | 19:56.22 | 3:21.37 | 89722 | 104833
5 | 23:17.59 | 7:28.17 | 104834 | 138450
6 | 30:46.01 | 2:18.52 | 138451 | 148852
7 | 33:04.53 | 4:55.17 | 148853 | 170994
8 | 37:59.70 | 5:40.51 | 170995 | 196545
9 | 43:40.46 | 7:18.70 | 196546 | 229465
10 | 50:59.41 | 5:03.58 | 229466 | 252248
Track 1
Filename D:\zzz\01 - U-5.wav
Pre-gap length 0:00:02.00
Peak level 87.8 %
Extraction speed 5.1 X
Track quality 100.0 %
Test CRC 6976AD2C
Copy CRC 6976AD2C
Track not present in AccurateRip database
Copy OK
Track 2
Filename D:\zzz\02 - BB-2.wav
Peak level 100.0 %
Extraction speed 5.5 X
Track quality 100.0 %
Test CRC 93141EAF
Copy CRC 93141EAF
Track not present in AccurateRip database
Copy OK
Track 3
Filename D:\zzz\03 - Q-1.wav
Peak level 100.0 %
Extraction speed 6.2 X
Track quality 100.0 %
Test CRC 3B9A31F0
Copy CRC 3B9A31F0
Track not present in AccurateRip database
Copy OK
Track 4
Filename D:\zzz\04 - W-1A.wav
Peak level 100.0 %
Extraction speed 5.2 X
Track quality 99.9 %
Test CRC 35DB1260
Copy CRC 35DB1260
Track not present in AccurateRip database
Copy OK
Track 5
Filename D:\zzz\05 - W-5.wav
Peak level 100.0 %
Extraction speed 6.4 X
Track quality 99.9 %
Test CRC 96D41B6A
Copy CRC 96D41B6A
Track not present in AccurateRip database
Copy OK
Track 6
Filename D:\zzz\06 - W-1B.wav
Peak level 100.0 %
Extraction speed 6.2 X
Track quality 100.0 %
Test CRC 20659DC4
Copy CRC 20659DC4
Track not present in AccurateRip database
Copy OK
Track 7
Filename D:\zzz\07 - T-6.wav
Peak level 100.0 %
Extraction speed 7.1 X
Track quality 100.0 %
Test CRC 39F91809
Copy CRC 39F91809
Track not present in AccurateRip database
Copy OK
Track 8
Filename D:\zzz\08 - AA-5.wav
Peak level 84.0 %
Extraction speed 7.5 X
Track quality 100.0 %
Test CRC D5B2D76C
Copy CRC D5B2D76C
Track not present in AccurateRip database
Copy OK
Track 9
Filename D:\zzz\09 - Q-2.wav
Peak level 100.0 %
Extraction speed 8.0 X
Track quality 100.0 %
Test CRC 265BED99
Copy CRC 265BED99
Track not present in AccurateRip database
Copy OK
Track 10
Filename D:\zzz\10 - AA-4.wav
Peak level 100.0 %
Extraction speed 7.3 X
Track quality 99.9 %
Test CRC D95EA14D
Copy CRC D95EA14D
Track not present in AccurateRip database
Copy OK
None of the tracks are present in the AccurateRip database
No errors occurred
End of status report
==== Log checksum B9275DC3673710243CB351D675C219752C8F802AC8C107C8A9E54F62ED26FD88 ====
 
Содержание индексной карты (.CUE)
REM GENRE "Free Improvisation"
REM DATE 2010
REM DISCID 940D230A
REM COMMENT "ExactAudioCopy v1.0b3"
PERFORMER "WD-41 + 2"
TITLE "Temi Per Cinema"
FILE "01 - U-5.wav" WAVE
TRACK 01 AUDIO
TITLE "U-5"
PERFORMER "WD-41 + 2"
INDEX 01 00:00:00
FILE "02 - BB-2.wav" WAVE
TRACK 02 AUDIO
TITLE "BB-2"
PERFORMER "WD-41 + 2"
INDEX 01 00:00:00
FILE "03 - Q-1.wav" WAVE
TRACK 03 AUDIO
TITLE "Q-1"
PERFORMER "WD-41 + 2"
INDEX 01 00:00:00
FILE "04 - W-1A.wav" WAVE
TRACK 04 AUDIO
TITLE "W-1A"
PERFORMER "WD-41 + 2"
INDEX 01 00:00:00
FILE "05 - W-5.wav" WAVE
TRACK 05 AUDIO
TITLE "W-5"
PERFORMER "WD-41 + 2"
INDEX 01 00:00:00
FILE "06 - W-1B.wav" WAVE
TRACK 06 AUDIO
TITLE "W-1B"
PERFORMER "WD-41 + 2"
INDEX 01 00:00:00
FILE "07 - T-6.wav" WAVE
TRACK 07 AUDIO
TITLE "T-6"
PERFORMER "WD-41 + 2"
INDEX 01 00:00:00
FILE "08 - AA-5.wav" WAVE
TRACK 08 AUDIO
TITLE "AA-5"
PERFORMER "WD-41 + 2"
INDEX 01 00:00:00
FILE "09 - Q-2.wav" WAVE
TRACK 09 AUDIO
TITLE "Q-2"
PERFORMER "WD-41 + 2"
INDEX 01 00:00:00
FILE "10 - AA-4.wav" WAVE
TRACK 10 AUDIO
TITLE "AA-4"
PERFORMER "WD-41 + 2"
INDEX 01 00:00:00
 
Лог проверки качества
d:\>d:\aucdtect -d/-m0 d:\zzz\*.wav
auCDtect: CD records authenticity detector, version 0.8.2
Copyright (c) 2004 Oleg Berngardt. All rights reserved.
Copyright (c) 2004 Alexander Djourik. All rights reserved.
------------------------------------------------------------
Processing file: [01. U-5.wav]
------------------------------------------------------------
This track looks like CDDA with probability 100%
------------------------------------------------------------
Processing file: [02. BB-2.wav]
------------------------------------------------------------
This track looks like CDDA with probability 100%
------------------------------------------------------------
Processing file: [03. Q-1.wav]
------------------------------------------------------------
This track looks like CDDA with probability 42%
------------------------------------------------------------
Processing file: [04. W-1A.wav]
------------------------------------------------------------
This track looks like CDDA with probability 100%
------------------------------------------------------------
Processing file: [05. W-5.wav]
------------------------------------------------------------
This track looks like MPEG with probability 93%
------------------------------------------------------------
Processing file: [06. W-1B.wav]
------------------------------------------------------------
This track looks like CDDA with probability 92%
------------------------------------------------------------
Processing file: [07. T-6.wav]
------------------------------------------------------------
This track looks like CDDA with probability 100%
------------------------------------------------------------
Processing file: [08. AA-5.wav]
------------------------------------------------------------
This track looks like MPEG with probability 93%
------------------------------------------------------------
Processing file: [09. Q-2.wav]
------------------------------------------------------------
This track looks like CDDA with probability 43%
------------------------------------------------------------
Processing file: [10. AA-4.wav]
------------------------------------------------------------
This track looks like MPEG with probability 99%
------------------------------------------------------------
Final Conclusion:
------------------------------------------------------------
Could not qualify the source of these tracks.
Доп. информация:
 
Album Info & AAJ Review
(Oteri/Laczko/Deane) -1,5,7,9
(Oteri/Laczko/Amendola)-2,4,6
(Oteri/Laczko) -3,8,10
Dino's tracks were recorded at Blubox, Villanueva, NM, engineered by Dino J.A. Deane
Scott's tracks were recorded at San Pablo Recorders, Berkeley, CA, engineered by Jon Evans
All WD-41 music produced and improvised live to two tracks in Austin, TX
Mixed by Willie Oteri and Dave Laczko
Recorded and mastered by Willie Oteri
Cover painting by N.W. Austin
Special thanks to Dino, Scott, Ears Short, Brandy W-K, and all our friends for their support
Temi Per Cinema is the follow-up to guitarist Willie Oteri and trumpeter Dave Laczko's self-produced WD-41 (2009), with the addition of lap steel dulcimer and beat jockey artist Dino J.A. Deane and drummer Scott Amendola. Collectively, the musicians have been at the forefront of new music-making, amid variable flavors and shades, bordering on the avant-garde, jazz-rock, electronica and other intertwining genres. Here, the WD-41+2 unit expands upon applications and concepts, first evidenced on the 2009 effort.
At times, Oteri and Laczko summon up notions of trumpeter Jon Hassell's legacy, via dark horns, sweeping electronics and atmospheric textures. But the differentiator here pertains to the musicians' portrayal of a portentous storyline, which could serve as the soundtrack to an avant, sci-fi video game. Featuring Oteri's detailed phrasings, budding undercurrents and Jimi Hendrix-like blasts, to coincide with Laczko's harrowing lines, the program offers a foreboding outlook composed of oscillating ventures into a vast neural network.
The band spawns a whirlwind abyss of fractured themes and scowling accents. On "AA-5," Laczko's stilted notes lead the charge atop a slowly climactic series of events, contrasted by loops, and the guitarist's deft single note attack, while Deane and Amendola execute unearthly underpinnings, often laying out a broad spectrum of ethereal treatments.
Each track bleeds into the next, mainly from a contextual standpoint. It's a program steeped within a deviant, ambient-electronica factor. Oteri and associates research diametrically-opposed angles and a swirling architecture, extending similar frameworks, rendered by others, into a herculean endeavor, offset by a take-no-prisoners approach. They accelerate the roads previously traversed into a frenetic cosmic experience on Temi Per Cinema.
 
Состав
Willie Oteri: guitars, live loops
Dave Laczko: trumpet, effects
plus special guests
Dino J.A. Deane: lap steel dulcimer, beatjockey
Scott Amendola: drums, percussion
Any questions -> support@pro-jazz.com. По всем вопросам пишите -> support@pro-jazz.com
17:45
140
Нет комментариев. Ваш будет первым!