Вы используете незарегистрированную версию компонента "Вкладки"!

Поиск

(Free Improvisation, Modern Creative, Sound Aspects) Andreas Willers (with Mark Dresser, Bobby Previte, Horst Nonnenmacher, Jim Black) - Cityscape - 1993, FLAC (tracks+.cue), lossless

(Free Improvisation, Modern Creative, Sound Aspects) Andreas Willers (with Mark Dresser, Bobby Previte, Horst Nonnenmacher, Jim Black) - Cityscape - 1993, FLAC (tracks+.cue), lossless
Треклист:
Andreas Willers / Cityscape
Жанр: Free Improvisation, Modern Creative, Sound Aspects
Страна-производитель диска: Germany
Год издания: 1993
Издатель (лейбл): Sound Aspects
Номер по каталогу: SAS CD 048
Аудиокодек: FLAC (*.flac)
Тип рипа: tracks+.cue
Битрейт аудио: lossless
Продолжительность: 1:01:08
Источник (релизер): Max Monteiro
Наличие сканов в содержимом раздачи: да
Треклист:
01. Swamplegend 8:03
02. Cityscape 11:55
03. Bauhaus 1:26
04. Reggea 6:08
05. Princess 5:40
06. Judika 5:29
07. Time Flies 5:25
08. Four Miles 0:57
09. Rummage 3:55
10. Cycles 2:39
11. Northern Bars / All the Way 9:29
All compositions by Andreas Willers, except « Four Miles » by Mark Dresser.
1-5 and 11 recorded in August 1992 at Kreuzberg Sound Studio, Berlin.
6-10 recorded in April 1992 at Baby Monster Sound Studio, New York.
Andreas Willers – Electric Guitar, Guitar-Synthesizer, Classical Guitar with:
1-4 and 11:
Horst Nonnenmacher – Bass
Jim Black – Drums
6-10:
Mark Dresser – Bass
Bobby Previte – Drums
5:
Mark Dresser – Bass
Horst Nonnenmacher – Bass
Bobby Previte – Drums
Jim Black – Drums
 
Лог создания рипа
Exact Audio Copy V1.0 beta 3 from 29. August 2011
EAC extraction logfile from 1. September 2013, 16:04
Andreas Willers / Cityscape
Used drive : SlimtypeeNAU508 5 Adapter: 1 ID: 0
Read mode : Secure
Utilize accurate stream : Yes
Defeat audio cache : Yes
Make use of C2 pointers : No
Read offset correction : 6
Overread into Lead-In and Lead-Out : No
Fill up missing offset samples with silence : Yes
Delete leading and trailing silent blocks : No
Null samples used in CRC calculations : Yes
Used interface : Native Win32 interface for Win NT & 2000
Gap handling : Appended to previous track
Used output format : User Defined Encoder
Selected bitrate : 768 kBit/s
Quality : High
Add ID3 tag : No
Command line compressor : C:\Program Files (x86)\Exact Audio Copy\Flac\flac.exe
Additional command line options : -8 -V -T "ARTIST=%artist%" -T "TITLE=%title%" -T "ALBUM=%albumtitle%" -T "DATE=%year%" -T "TRACKNUMBER=%tracknr%" -T "GENRE=%genre%" -T "PERFORMER=%albuminterpret%" -T "COMPOSER=%composer%" %haslyrics%--tag-from-file=LYRICS="%lyricsfile%"%haslyrics% -T "ALBUMARTIST=%albumartist%" -T "DISCNUMBER=%cdnumber%" -T "TOTALDISCS=%totalcds%" -T "TOTALTRACKS=%numtracks%" -T "COMMENT=%comment%" %source% -o %dest%
TOC of the extracted CD
Track | Start | Length | Start sector | End sector
---------------------------------------------------------
1 | 0:00.00 | 8:02.70 | 0 | 36219
2 | 8:02.70 | 11:55.33 | 36220 | 89877
3 | 19:58.28 | 1:25.67 | 89878 | 96319
4 | 21:24.20 | 6:08.30 | 96320 | 123949
5 | 27:32.50 | 5:40.33 | 123950 | 149482
6 | 33:13.08 | 5:29.15 | 149483 | 174172
7 | 38:42.23 | 5:24.50 | 174173 | 198522
8 | 44:06.73 | 0:56.67 | 198523 | 202789
9 | 45:03.65 | 3:55.18 | 202790 | 220432
10 | 48:59.08 | 2:39.15 | 220433 | 232372
11 | 51:38.23 | 9:29.22 | 232373 | 275069
Track 1
Filename C:\EAC rips\01 - Swamplegend.wav
Pre-gap length 0:00:02.00
Peak level 88.8 %
Extraction speed 2.7 X
Track quality 100.0 %
Test CRC 08648D38
Copy CRC 08648D38
Accurately ripped (confidence 1) [788F198F] (AR v2)
Copy OK
Track 2
Filename C:\EAC rips\02 - Cityscape.wav
Pre-gap length 0:00:01.05
Peak level 88.8 %
Extraction speed 3.1 X
Track quality 99.9 %
Test CRC 1E7CFE7C
Copy CRC 1E7CFE7C
Accurately ripped (confidence 1) [F8025F37] (AR v2)
Copy OK
Track 3
Filename C:\EAC rips\03 - Bauhaus.wav
Pre-gap length 0:00:02.33
Peak level 36.3 %
Extraction speed 2.7 X
Track quality 100.0 %
Test CRC F7BA6D95
Copy CRC F7BA6D95
Accurately ripped (confidence 1) [5E46BB2D] (AR v2)
Copy OK
Track 4
Filename C:\EAC rips\04 - Reggea.wav
Pre-gap length 0:00:03.25
Peak level 100.0 %
Extraction speed 3.6 X
Track quality 100.0 %
Test CRC 7D422C84
Copy CRC 7D422C84
Accurately ripped (confidence 1) [09BE8987] (AR v2)
Copy OK
Track 5
Filename C:\EAC rips\05 - Princess.wav
Pre-gap length 0:00:02.12
Peak level 100.0 %
Extraction speed 3.9 X
Track quality 100.0 %
Test CRC 68C84294
Copy CRC 68C84294
Accurately ripped (confidence 1) [E5A43326] (AR v2)
Copy OK
Track 6
Filename C:\EAC rips\06 - Judika.wav
Pre-gap length 0:00:01.23
Peak level 52.9 %
Extraction speed 4.1 X
Track quality 100.0 %
Test CRC A3645059
Copy CRC A3645059
Accurately ripped (confidence 1) [CB0F40E4] (AR v2)
Copy OK
Track 7
Filename C:\EAC rips\07 - Time Flies.wav
Pre-gap length 0:00:01.50
Peak level 85.3 %
Extraction speed 3.6 X
Track quality 99.9 %
Test CRC 2BA8A9CF
Copy CRC 2BA8A9CF
Accurately ripped (confidence 1) [0E503803] (AR v2)
Copy OK
Track 8
Filename C:\EAC rips\08 - Four Miles.wav
Pre-gap length 0:00:02.10
Peak level 51.7 %
Extraction speed 2.9 X
Track quality 100.0 %
Test CRC 440EDF31
Copy CRC 440EDF31
Accurately ripped (confidence 1) [90095E27] (AR v2)
Copy OK
Track 9
Filename C:\EAC rips\09 - Rummage.wav
Pre-gap length 0:00:01.67
Peak level 58.8 %
Extraction speed 4.3 X
Track quality 100.0 %
Test CRC 21177D03
Copy CRC 21177D03
Accurately ripped (confidence 1) [EE1BC7A5] (AR v2)
Copy OK
Track 10
Filename C:\EAC rips\10 - Cycles.wav
Pre-gap length 0:00:03.55
Peak level 35.4 %
Extraction speed 4.1 X
Track quality 100.0 %
Test CRC 7AC90F34
Copy CRC 7AC90F34
Accurately ripped (confidence 1) [315E2544] (AR v2)
Copy OK
Track 11
Filename C:\EAC rips\11 - Northern Bars - All the Way.wav
Pre-gap length 0:00:01.38
Peak level 99.9 %
Extraction speed 5.0 X
Track quality 100.0 %
Test CRC AEEBCABE
Copy CRC AEEBCABE
Accurately ripped (confidence 1) [26507089] (AR v2)
Copy OK
All tracks accurately ripped
No errors occurred
End of status report
---- CUETools DB Plugin V2.1.4
[CTDB TOCID: 2e79apAgd0jpcJBFoYaovScSdAQ-] found
Submit result: 2e79apAgd0jpcJBFoYaovScSdAQ- has been confirmed
Track | CTDB Status
1 | (1/1) Accurately ripped
2 | (1/1) Accurately ripped
3 | (1/1) Accurately ripped
4 | (1/1) Accurately ripped
5 | (1/1) Accurately ripped
6 | (1/1) Accurately ripped
7 | (1/1) Accurately ripped
8 | (1/1) Accurately ripped
9 | (1/1) Accurately ripped
10 | (1/1) Accurately ripped
11 | (1/1) Accurately ripped
==== Log checksum 086D0039DB89C091F1975D5BB40FFA59030B9CDF24EF1E2CFD82EE9AA1FEEEC7 ====
 
Содержание индексной карты (.CUE)
REM GENRE Jazz
REM DATE 1993
REM DISCID 8F0E530B
REM COMMENT "ExactAudioCopy v1.0b3"
PERFORMER "Andreas Willers"
TITLE "Cityscape"
FILE "01 - Swamplegend.wav" WAVE
TRACK 01 AUDIO
TITLE "Swamplegend"
PERFORMER "Andreas Willers"
INDEX 01 00:00:00
TRACK 02 AUDIO
TITLE "Cityscape"
PERFORMER "Andreas Willers"
INDEX 00 08:01:65
FILE "02 - Cityscape.wav" WAVE
INDEX 01 00:00:00
TRACK 03 AUDIO
TITLE "Bauhaus"
PERFORMER "Andreas Willers"
INDEX 00 11:53:00
FILE "03 - Bauhaus.wav" WAVE
INDEX 01 00:00:00
TRACK 04 AUDIO
TITLE "Reggea"
PERFORMER "Andreas Willers"
INDEX 00 01:22:42
FILE "04 - Reggea.wav" WAVE
INDEX 01 00:00:00
TRACK 05 AUDIO
TITLE "Princess"
PERFORMER "Andreas Willers"
INDEX 00 06:06:18
FILE "05 - Princess.wav" WAVE
INDEX 01 00:00:00
TRACK 06 AUDIO
TITLE "Judika"
PERFORMER "Andreas Willers"
INDEX 00 05:39:10
FILE "06 - Judika.wav" WAVE
INDEX 01 00:00:00
TRACK 07 AUDIO
TITLE "Time Flies"
PERFORMER "Andreas Willers"
INDEX 00 05:27:40
FILE "07 - Time Flies.wav" WAVE
INDEX 01 00:00:00
TRACK 08 AUDIO
TITLE "Four Miles"
PERFORMER "Andreas Willers"
INDEX 00 05:22:40
FILE "08 - Four Miles.wav" WAVE
INDEX 01 00:00:00
TRACK 09 AUDIO
TITLE "Rummage"
PERFORMER "Andreas Willers"
INDEX 00 00:55:00
FILE "09 - Rummage.wav" WAVE
INDEX 01 00:00:00
TRACK 10 AUDIO
TITLE "Cycles"
PERFORMER "Andreas Willers"
INDEX 00 03:51:38
FILE "10 - Cycles.wav" WAVE
INDEX 01 00:00:00
TRACK 11 AUDIO
TITLE "Northern Bars / All the Way"
PERFORMER "Andreas Willers"
INDEX 00 02:37:52
FILE "11 - Northern Bars - All the Way.wav" WAVE
INDEX 01 00:00:00
INDEX 02 07:49:62
Any questions -> support@pro-jazz.com. По всем вопросам пишите -> support@pro-jazz.com
17:46
156
Нет комментариев. Ваш будет первым!