Вы используете незарегистрированную версию компонента "Вкладки"!

Поиск

(Contemporary Jazz, Sound Aspects) Wayne Horvitz, Butch Morris, Robert Previte - Todos Santos - 1988, FLAC (tracks+.cue), lossless

(Contemporary Jazz, Sound Aspects) Wayne Horvitz, Butch Morris, Robert Previte - Todos Santos - 1988, FLAC (tracks+.cue), lossless
Треклист:
Wayne Horvitz, Butch Morris, Robert Previte / Todos Santos
Жанр: Contemporary Jazz, Sound Aspects
Страна-производитель диска: Germany
Год издания: 1988
Издатель (лейбл): Sound Aspects
Номер по каталогу: SAS CD 019
Аудиокодек: FLAC (*.flac)
Тип рипа: tracks+.cue
Битрейт аудио: lossless
Продолжительность: 45:58
Источник (релизер): Max Monteiro
Наличие сканов в содержимом раздачи: да
Треклист:
1. Adagio (trio) 5:00
2. Nightbirds (trio) 6:10
3. Cheyenne (duet) 5:06
4. The Road to Zamora (trio) 4:52
5. Your Palm on the Windows, Drawing (duet Horvitz / Previte) 3:09
6. Todos Santos (duet) 5:38
7. Waltz (trio) 1:48
8. Overs (trio) 7:17
9. The Road to Zamora / Ashes to Ashes (duet) 6:58
All compositions by Robin Holcomb.
Trios recorded January 1988 at Newtex Studio, NYC.
Duets recorded January 1988 at Cage, Hoboken, NJ.
Wayne Horvitz – Acoustic & Amplified Piano, DX-7
Butch Morris – Cornet
Robert Previte – Drums, DX-7, Drum-Machine, Marimba
Doug Wieselman – Tenor Saxophone, Clarinet
Bill Frisell – Guitars
Play Robin Holcomb
 
Лог создания рипа
Exact Audio Copy V1.0 beta 3 from 29. August 2011
EAC extraction logfile from 1. September 2013, 19:02
Wayne Horvitz, Butch Morris, Robert Previte / Todos Santos
Used drive : SlimtypeeNAU508 5 Adapter: 1 ID: 0
Read mode : Secure
Utilize accurate stream : Yes
Defeat audio cache : Yes
Make use of C2 pointers : No
Read offset correction : 6
Overread into Lead-In and Lead-Out : No
Fill up missing offset samples with silence : Yes
Delete leading and trailing silent blocks : No
Null samples used in CRC calculations : Yes
Used interface : Native Win32 interface for Win NT & 2000
Gap handling : Appended to previous track
Used output format : User Defined Encoder
Selected bitrate : 768 kBit/s
Quality : High
Add ID3 tag : No
Command line compressor : C:\Program Files (x86)\Exact Audio Copy\Flac\flac.exe
Additional command line options : -8 -V -T "ARTIST=%artist%" -T "TITLE=%title%" -T "ALBUM=%albumtitle%" -T "DATE=%year%" -T "TRACKNUMBER=%tracknr%" -T "GENRE=%genre%" -T "PERFORMER=%albuminterpret%" -T "COMPOSER=%composer%" %haslyrics%--tag-from-file=LYRICS="%lyricsfile%"%haslyrics% -T "ALBUMARTIST=%albumartist%" -T "DISCNUMBER=%cdnumber%" -T "TOTALDISCS=%totalcds%" -T "TOTALTRACKS=%numtracks%" -T "COMMENT=%comment%" %source% -o %dest%
TOC of the extracted CD
Track | Start | Length | Start sector | End sector
---------------------------------------------------------
1 | 0:00.32 | 4:59.40 | 32 | 22496
2 | 4:59.72 | 6:10.28 | 22497 | 50274
3 | 11:10.25 | 5:06.20 | 50275 | 73244
4 | 16:16.45 | 4:51.72 | 73245 | 95141
5 | 21:08.42 | 3:08.70 | 95142 | 109311
6 | 24:17.37 | 5:37.68 | 109312 | 134654
7 | 29:55.30 | 1:47.40 | 134655 | 142719
8 | 31:42.70 | 7:17.25 | 142720 | 175519
9 | 39:00.20 | 6:57.62 | 175520 | 206856
Track 1
Filename C:\EAC rips\01 - Adagio.wav
Pre-gap length 0:00:02.32
Peak level 92.2 %
Extraction speed 1.1 X
Track quality 100.0 %
Test CRC 465AB787
Copy CRC 465AB787
Accurately ripped (confidence 2) [5FE7B2B7] (AR v1)
Copy OK
Track 2
Filename C:\EAC rips\02 - Nightbirds.wav
Pre-gap length 0:00:03.17
Peak level 73.4 %
Extraction speed 1.3 X
Track quality 100.0 %
Test CRC 2B75DA41
Copy CRC 2B75DA41
Accurately ripped (confidence 2) [6B32CEED] (AR v1)
Copy OK
Track 3
Filename C:\EAC rips\03 - Cheyenne.wav
Pre-gap length 0:00:01.30
Peak level 54.4 %
Extraction speed 1.4 X
Track quality 100.0 %
Test CRC 1B826235
Copy CRC 1B826235
Accurately ripped (confidence 2) [4F1B51C8] (AR v1)
Copy OK
Track 4
Filename C:\EAC rips\04 - The Road to Zamora.wav
Pre-gap length 0:00:01.18
Peak level 91.1 %
Extraction speed 1.5 X
Track quality 100.0 %
Test CRC 5A6DB639
Copy CRC 5A6DB639
Accurately ripped (confidence 2) [D98B0781] (AR v1)
Copy OK
Track 5
Filename C:\EAC rips\05 - Your Palm on the Windows, Drawing.wav
Pre-gap length 0:00:04.27
Peak level 41.4 %
Extraction speed 1.5 X
Track quality 100.0 %
Test CRC 806DD211
Copy CRC 806DD211
Accurately ripped (confidence 2) [84B249DA] (AR v1)
Copy OK
Track 6
Filename C:\EAC rips\06 - Todos Santos.wav
Pre-gap length 0:00:02.35
Peak level 48.7 %
Extraction speed 1.7 X
Track quality 100.0 %
Test CRC 6D060301
Copy CRC 6D060301
Accurately ripped (confidence 2) [894FE899] (AR v1)
Copy OK
Track 7
Filename C:\EAC rips\07 - Waltz.wav
Pre-gap length 0:00:02.50
Peak level 61.1 %
Extraction speed 1.1 X
Track quality 99.9 %
Test CRC 915088BC
Copy CRC 915088BC
Accurately ripped (confidence 2) [A2C269AA] (AR v1)
Copy OK
Track 8
Filename C:\EAC rips\08 - Overs.wav
Pre-gap length 0:00:00.70
Peak level 83.9 %
Extraction speed 1.9 X
Track quality 100.0 %
Test CRC C1A37CD7
Copy CRC C1A37CD7
Accurately ripped (confidence 2) [191A82D6] (AR v1)
Copy OK
Track 9
Filename C:\EAC rips\09 - The Road to Zamora - Ashes to Ashes.wav
Pre-gap length 0:00:01.38
Peak level 37.3 %
Extraction speed 2.1 X
Track quality 100.0 %
Test CRC B0C071DA
Copy CRC B0C071DA
Accurately ripped (confidence 2) [6D3E48E0] (AR v1)
Copy OK
All tracks accurately ripped
No errors occurred
End of status report
---- CUETools DB Plugin V2.1.4
[CTDB TOCID: mFcfP3asTdP2kpNS2nmX274wmLc-] disk not present in database
Submit result: mFcfP3asTdP2kpNS2nmX274wmLc- has been uploaded
==== Log checksum 4AF1705DFB7717C313EA588F61B057D3019DD16F19245CF75EAAE1CC7127FABF ====
 
Содержание индексной карты (.CUE)
REM GENRE Jazz
REM DATE 1988
REM DISCID 7B0AC609
REM COMMENT "ExactAudioCopy v1.0b3"
PERFORMER "Wayne Horvitz, Butch Morris, Robert Previte"
TITLE "Todos Santos"
FILE "01 - Adagio.wav" WAVE
TRACK 01 AUDIO
TITLE "Adagio"
PERFORMER "Wayne Horvitz, Butch Morris, Robert Previte"
PREGAP 00:00:32
INDEX 01 00:00:00
TRACK 02 AUDIO
TITLE "Nightbirds"
PERFORMER "Wayne Horvitz, Butch Morris, Robert Previte"
INDEX 00 04:56:23
FILE "02 - Nightbirds.wav" WAVE
INDEX 01 00:00:00
TRACK 03 AUDIO
TITLE "Cheyenne"
PERFORMER "Wayne Horvitz, Butch Morris, Robert Previte"
INDEX 00 06:08:73
FILE "03 - Cheyenne.wav" WAVE
INDEX 01 00:00:00
TRACK 04 AUDIO
TITLE "The Road to Zamora"
PERFORMER "Doug Wieselman, Bill Frisell"
INDEX 00 05:05:02
FILE "04 - The Road to Zamora.wav" WAVE
INDEX 01 00:00:00
TRACK 05 AUDIO
TITLE "Your Palm on the Windows, Drawing"
PERFORMER "Wayne Horvitz, Robert Previte"
INDEX 00 04:47:45
FILE "05 - Your Palm on the Windows, Drawing.wav" WAVE
INDEX 01 00:00:00
TRACK 06 AUDIO
TITLE "Todos Santos"
PERFORMER "Doug Wieselman, Bill Frisell"
INDEX 00 03:06:35
FILE "06 - Todos Santos.wav" WAVE
INDEX 01 00:00:00
TRACK 07 AUDIO
TITLE "Waltz"
PERFORMER "Doug Wieselman, Bill Frisell"
INDEX 00 05:35:18
FILE "07 - Waltz.wav" WAVE
INDEX 01 00:00:00
TRACK 08 AUDIO
TITLE "Overs"
PERFORMER "Wayne Horvitz, Butch Morris, Robert Previte"
INDEX 00 01:46:45
FILE "08 - Overs.wav" WAVE
INDEX 01 00:00:00
TRACK 09 AUDIO
TITLE "The Road to Zamora / Ashes to Ashes"
PERFORMER "Doug Wieselman, Bill Frisell"
INDEX 00 07:15:62
FILE "09 - The Road to Zamora - Ashes to Ashes.wav" WAVE
INDEX 01 00:00:00
По всем вопросам пишите личное сообщение пользователю M0p94ok.
17:46
141
Нет комментариев. Ваш будет первым!