Вы используете незарегистрированную версию компонента "Вкладки"!

Поиск

(Free Improvisation, Contemporary Jazz, Sound Aspects) Mani Planzers MorschAchBlasOrCHester - Esperar - 1991, FLAC (tracks+.cue), lossless

(Free Improvisation, Contemporary Jazz, Sound Aspects) Mani Planzers MorschAchBlasOrCHester - Esperar - 1991, FLAC (tracks+.cue), lossless
Треклист:
Mani Planzers MorschAchBlasOrCHester / Esperar
Жанр: Free Improvisation, Contemporary Jazz, Sound Aspects
Страна-производитель диска: Germany
Год издания: 1991
Издатель (лейбл): Sound Aspects
Номер по каталогу: SAS CD 046
Аудиокодек: FLAC (*.flac)
Тип рипа: tracks+.cue
Битрейт аудио: lossless
Продолжительность: 1:02:36
Источник (релизер): Max Monteiro
Наличие сканов в содержимом раздачи: да
Треклист:
01. Kaum- und dennoch 3:30
02. Sala de espera 10:13
03. Wandel 2:55
04. Hoffnung 1:44
05. da sein 0:56
06. widerstehen 10:02
07. aus der Reihe 2:39
08. Zeit 2:30
09. Illusion 3:54
10. Geduld 4:04
11. Dreifaltigkeit 7:05
12. heute 1:15
13. die andere Zeit 3:12
14. ungelebt 0:45
15. hOFFEN 7:52
All compositions by Mani Planzer, except #3 by Valentin Vecellio, #7 by Peter Schmid, and #10 by Hans Kennel.
Live recording at Hofkirche Luzern, November 10, 1990.
Mani Planzer mit seinem MorschAchBlasOrCHester:
Leo Bachmann – Tuba
Peter Böhringer – Trumpet
Manuel Hebeisen – Oboe + English Horn
Herbert Kramis – Contrabass
Florian Nussbaumer – Trumpet + Fluegelhorn
Peter Schmid – Bass Clarinet + Saxophone
Andy Schneider – Flute + Alto Saxophone
Urs Schnell – Flute + Bass Flute
Christoph Steiner – Cello
Beat Unternährer – Trombone
Valentin Vecellio – Bass Clarinet + Clarinets
and guests:
Hans Kennel – Fluegelhorn + Alphorn
Edwin Küttel – Musette + Oboe + English Horn
Karl Raas – Church Organ
 
Лог создания рипа
Exact Audio Copy V1.0 beta 3 from 29. August 2011
EAC extraction logfile from 2. September 2013, 13:18
Mani Planzers MorschAchBlasOrCHester / Esperar
Used drive : SlimtypeeNAU508 5 Adapter: 1 ID: 0
Read mode : Secure
Utilize accurate stream : Yes
Defeat audio cache : Yes
Make use of C2 pointers : No
Read offset correction : 6
Overread into Lead-In and Lead-Out : No
Fill up missing offset samples with silence : Yes
Delete leading and trailing silent blocks : No
Null samples used in CRC calculations : Yes
Used interface : Native Win32 interface for Win NT & 2000
Gap handling : Appended to previous track
Used output format : User Defined Encoder
Selected bitrate : 768 kBit/s
Quality : High
Add ID3 tag : No
Command line compressor : C:\Program Files (x86)\Exact Audio Copy\Flac\flac.exe
Additional command line options : -8 -V -T "ARTIST=%artist%" -T "TITLE=%title%" -T "ALBUM=%albumtitle%" -T "DATE=%year%" -T "TRACKNUMBER=%tracknr%" -T "GENRE=%genre%" -T "PERFORMER=%albuminterpret%" -T "COMPOSER=%composer%" %haslyrics%--tag-from-file=LYRICS="%lyricsfile%"%haslyrics% -T "ALBUMARTIST=%albumartist%" -T "DISCNUMBER=%cdnumber%" -T "TOTALDISCS=%totalcds%" -T "TOTALTRACKS=%numtracks%" -T "COMMENT=%comment%" %source% -o %dest%
TOC of the extracted CD
Track | Start | Length | Start sector | End sector
---------------------------------------------------------
1 | 0:00.00 | 3:29.62 | 0 | 15736
2 | 3:29.62 | 10:13.00 | 15737 | 61711
3 | 13:42.62 | 2:55.00 | 61712 | 74836
4 | 16:37.62 | 1:44.00 | 74837 | 82636
5 | 18:21.62 | 0:56.00 | 82637 | 86836
6 | 19:17.62 | 10:02.00 | 86837 | 131986
7 | 29:19.62 | 2:39.00 | 131987 | 143911
8 | 31:58.62 | 2:30.00 | 143912 | 155161
9 | 34:28.62 | 3:54.00 | 155162 | 172711
10 | 38:22.62 | 4:04.00 | 172712 | 191011
11 | 42:26.62 | 7:05.00 | 191012 | 222886
12 | 49:31.62 | 1:15.00 | 222887 | 228511
13 | 50:46.62 | 3:12.00 | 228512 | 242911
14 | 53:58.62 | 0:45.00 | 242912 | 246286
15 | 54:43.62 | 7:52.13 | 246287 | 281699
Track 1
Filename C:\EAC rips\01 - Kaum- und dennoch.wav
Pre-gap length 0:00:02.00
Peak level 91.7 %
Extraction speed 1.7 X
Track quality 99.9 %
Test CRC C5AFC384
Copy CRC C5AFC384
Track not present in AccurateRip database
Copy OK
Track 2
Filename C:\EAC rips\02 - Sala de espera.wav
Peak level 91.1 %
Extraction speed 2.8 X
Track quality 100.0 %
Test CRC BFF04F63
Copy CRC BFF04F63
Track not present in AccurateRip database
Copy OK
Track 3
Filename C:\EAC rips\03 - Wandel.wav
Peak level 42.2 %
Extraction speed 2.8 X
Track quality 100.0 %
Test CRC C8DF145F
Copy CRC C8DF145F
Track not present in AccurateRip database
Copy OK
Track 4
Filename C:\EAC rips\04 - Hoffnung.wav
Peak level 47.5 %
Extraction speed 2.6 X
Track quality 100.0 %
Test CRC 57CD05AB
Copy CRC 57CD05AB
Track not present in AccurateRip database
Copy OK
Track 5
Filename C:\EAC rips\05 - da sein.wav
Peak level 17.1 %
Extraction speed 2.1 X
Track quality 100.0 %
Test CRC BB916A4A
Copy CRC BB916A4A
Track not present in AccurateRip database
Copy OK
Track 6
Filename C:\EAC rips\06 - widerstehen.wav
Peak level 91.5 %
Extraction speed 3.7 X
Track quality 100.0 %
Test CRC 9680DF0D
Copy CRC 9680DF0D
Track not present in AccurateRip database
Copy OK
Track 7
Filename C:\EAC rips\07 - aus der Reihe.wav
Peak level 37.9 %
Extraction speed 2.5 X
Track quality 99.9 %
Test CRC 6E339C39
Copy CRC 6E339C39
Track not present in AccurateRip database
Copy OK
Track 8
Filename C:\EAC rips\08 - Zeit.wav
Peak level 27.0 %
Extraction speed 3.4 X
Track quality 100.0 %
Test CRC 9C09ADD5
Copy CRC 9C09ADD5
Track not present in AccurateRip database
Copy OK
Track 9
Filename C:\EAC rips\09 - Illusion.wav
Peak level 25.6 %
Extraction speed 3.8 X
Track quality 100.0 %
Test CRC 4E19E61B
Copy CRC 4E19E61B
Track not present in AccurateRip database
Copy OK
Track 10
Filename C:\EAC rips\10 - Geduld.wav
Peak level 63.7 %
Extraction speed 3.2 X
Track quality 99.9 %
Test CRC 9F47427B
Copy CRC 9F47427B
Track not present in AccurateRip database
Copy OK
Track 11
Filename C:\EAC rips\11 - Dreifaltigkeit.wav
Peak level 33.9 %
Extraction speed 4.4 X
Track quality 100.0 %
Test CRC 844CD12F
Copy CRC 844CD12F
Track not present in AccurateRip database
Copy OK
Track 12
Filename C:\EAC rips\12 - heute.wav
Peak level 21.9 %
Extraction speed 2.1 X
Track quality 99.8 %
Test CRC CA18EAAF
Copy CRC CA18EAAF
Track not present in AccurateRip database
Copy OK
Track 13
Filename C:\EAC rips\13 - die andere Zeit.wav
Peak level 90.8 %
Extraction speed 4.1 X
Track quality 100.0 %
Test CRC C5B4C7F7
Copy CRC C5B4C7F7
Track not present in AccurateRip database
Copy OK
Track 14
Filename C:\EAC rips\14 - ungelebt.wav
Peak level 17.8 %
Extraction speed 2.7 X
Track quality 100.0 %
Test CRC F64872B7
Copy CRC F64872B7
Track not present in AccurateRip database
Copy OK
Track 15
Filename C:\EAC rips\15 - hOFFEN.wav
Peak level 90.1 %
Extraction speed 4.8 X
Track quality 100.0 %
Test CRC 4F36BCB3
Copy CRC 4F36BCB3
Track not present in AccurateRip database
Copy OK
None of the tracks are present in the AccurateRip database
No errors occurred
End of status report
---- CUETools DB Plugin V2.1.4
[CTDB TOCID: IA8KpG8_4LSl4IjM1_m5V8zIFHc-] found
Submit result: IA8KpG8_4LSl4IjM1_m5V8zIFHc- has been confirmed
Track | CTDB Status
1 | (2/2) Accurately ripped
2 | (2/2) Accurately ripped
3 | (2/2) Accurately ripped
4 | (2/2) Accurately ripped
5 | (2/2) Accurately ripped
6 | (2/2) Accurately ripped
7 | (2/2) Accurately ripped
8 | (2/2) Accurately ripped
9 | (2/2) Accurately ripped
10 | (2/2) Accurately ripped
11 | (2/2) Accurately ripped
12 | (2/2) Accurately ripped
13 | (1/2) Accurately ripped, or (1/2) differs in 1470 samples @00:48:39-00:48:40
14 | (2/2) Accurately ripped
15 | (2/2) Accurately ripped
==== Log checksum F3899970549ED80A72DF1877C93E8449BAEC10BBDE30FC5FD3DC4317AD43B466 ====
 
Содержание индексной карты (.CUE)
REM GENRE Jazz
REM DATE 1991
REM DISCID C30EAC0F
REM COMMENT "ExactAudioCopy v1.0b3"
PERFORMER "Mani Planzers MorschAchBlasOrCHester"
TITLE "Esperar"
FILE "01 - Kaum- und dennoch.wav" WAVE
TRACK 01 AUDIO
TITLE "Kaum- und dennoch"
PERFORMER "Mani Planzers MorschAchBlasOrCHester"
INDEX 01 00:00:00
FILE "02 - Sala de espera.wav" WAVE
TRACK 02 AUDIO
TITLE "Sala de espera"
PERFORMER "Mani Planzers MorschAchBlasOrCHester"
INDEX 01 00:00:00
FILE "03 - Wandel.wav" WAVE
TRACK 03 AUDIO
TITLE "Wandel"
PERFORMER "Mani Planzers MorschAchBlasOrCHester"
INDEX 01 00:00:00
FILE "04 - Hoffnung.wav" WAVE
TRACK 04 AUDIO
TITLE "Hoffnung"
PERFORMER "Mani Planzers MorschAchBlasOrCHester"
INDEX 01 00:00:00
FILE "05 - da sein.wav" WAVE
TRACK 05 AUDIO
TITLE "da sein"
PERFORMER "Mani Planzers MorschAchBlasOrCHester"
INDEX 01 00:00:00
FILE "06 - widerstehen.wav" WAVE
TRACK 06 AUDIO
TITLE "widerstehen"
PERFORMER "Mani Planzers MorschAchBlasOrCHester"
INDEX 01 00:00:00
FILE "07 - aus der Reihe.wav" WAVE
TRACK 07 AUDIO
TITLE "aus der Reihe"
PERFORMER "Mani Planzers MorschAchBlasOrCHester"
INDEX 01 00:00:00
FILE "08 - Zeit.wav" WAVE
TRACK 08 AUDIO
TITLE "Zeit"
PERFORMER "Mani Planzers MorschAchBlasOrCHester"
INDEX 01 00:00:00
FILE "09 - Illusion.wav" WAVE
TRACK 09 AUDIO
TITLE "Illusion"
PERFORMER "Mani Planzers MorschAchBlasOrCHester"
INDEX 01 00:00:00
FILE "10 - Geduld.wav" WAVE
TRACK 10 AUDIO
TITLE "Geduld"
PERFORMER "Mani Planzers MorschAchBlasOrCHester"
INDEX 01 00:00:00
FILE "11 - Dreifaltigkeit.wav" WAVE
TRACK 11 AUDIO
TITLE "Dreifaltigkeit"
PERFORMER "Mani Planzers MorschAchBlasOrCHester"
INDEX 01 00:00:00
FILE "12 - heute.wav" WAVE
TRACK 12 AUDIO
TITLE "heute"
PERFORMER "Mani Planzers MorschAchBlasOrCHester"
INDEX 01 00:00:00
FILE "13 - die andere Zeit.wav" WAVE
TRACK 13 AUDIO
TITLE "die andere Zeit"
PERFORMER "Mani Planzers MorschAchBlasOrCHester"
INDEX 01 00:00:00
FILE "14 - ungelebt.wav" WAVE
TRACK 14 AUDIO
TITLE "ungelebt"
PERFORMER "Mani Planzers MorschAchBlasOrCHester"
INDEX 01 00:00:00
FILE "15 - hOFFEN.wav" WAVE
TRACK 15 AUDIO
TITLE "hOFFEN"
PERFORMER "Mani Planzers MorschAchBlasOrCHester"
INDEX 01 00:00:00
Доп. информация: I can not thank enough ivoronen for making me discover this great music.
Any questions -> support@pro-jazz.com. По всем вопросам пишите -> support@pro-jazz.com
17:47
131
Нет комментариев. Ваш будет первым!