Вы используете незарегистрированную версию компонента "Вкладки"!

Поиск

(Free Improvisation, Okkadisk) The Engines (Jeb Bishop, Dave Rempis, Nate McBride, Tim Daisy) - Wire and Brass - 2010, FLAC (tracks+.cue), lossless

(Free Improvisation, Okkadisk) The Engines (Jeb Bishop, Dave Rempis, Nate McBride, Tim Daisy) - Wire and Brass - 2010, FLAC (tracks+.cue), lossless
Треклист:
The Engines / Wire and Brass
Жанр: Free Improvisation, Okkadisk
Страна-производитель диска: U.S.A.
Год издания: 2010
Издатель (лейбл): Okkadisk
Номер по каталогу: OD12079
Аудиокодек: FLAC (*.flac)
Тип рипа: tracks+.cue
Битрейт аудио: lossless
Продолжительность: 57:15
Источник (релизер): Max Monteiro
Наличие сканов в содержимом раздачи: да
Треклист:
1. Trouble Distribution (Nate McBride) 10:26
2. Red Cage (Tim Daisy) 11:00
3. Next Question (Nate McBride) 9:59
4. Four Feet of Slush (Dave Rempis) 10:02
5. Free Range (Dave Rempis) 15:48
Recorded April 20th, 2008 at the Hungry Brain in Chicago.
Jep Bishop – Trombone
Dave Rempis – Saxophones
Nate McBride – Acoustic and Electric Bass
Tim Daisy – Drums
 
Лог создания рипа
Exact Audio Copy V1.0 beta 3 from 29. August 2011
EAC extraction logfile from 20. August 2013, 15:06
The Engines / Wire and Brass
Used drive : SlimtypeeNAU508 5 Adapter: 1 ID: 0
Read mode : Secure
Utilize accurate stream : Yes
Defeat audio cache : Yes
Make use of C2 pointers : No
Read offset correction : 6
Overread into Lead-In and Lead-Out : No
Fill up missing offset samples with silence : Yes
Delete leading and trailing silent blocks : No
Null samples used in CRC calculations : Yes
Used interface : Native Win32 interface for Win NT & 2000
Gap handling : Appended to previous track
Used output format : User Defined Encoder
Selected bitrate : 768 kBit/s
Quality : High
Add ID3 tag : No
Command line compressor : C:\Program Files (x86)\Exact Audio Copy\Flac\flac.exe
Additional command line options : -8 -V -T "ARTIST=%artist%" -T "TITLE=%title%" -T "ALBUM=%albumtitle%" -T "DATE=%year%" -T "TRACKNUMBER=%tracknr%" -T "GENRE=%genre%" -T "PERFORMER=%albuminterpret%" -T "COMPOSER=%composer%" %haslyrics%--tag-from-file=LYRICS="%lyricsfile%"%haslyrics% -T "ALBUMARTIST=%albumartist%" -T "DISCNUMBER=%cdnumber%" -T "TOTALDISCS=%totalcds%" -T "TOTALTRACKS=%numtracks%" -T "COMMENT=%comment%" %source% -o %dest%
TOC of the extracted CD
Track | Start | Length | Start sector | End sector
---------------------------------------------------------
1 | 0:00.00 | 10:26.00 | 0 | 46949
2 | 10:26.00 | 11:00.37 | 46950 | 96486
3 | 21:26.37 | 9:59.00 | 96487 | 141411
4 | 31:25.37 | 10:02.00 | 141412 | 186561
5 | 41:27.37 | 15:48.00 | 186562 | 257661
Track 1
Filename C:\EAC rips\01 - Trouble Distribution.wav
Pre-gap length 0:00:02.00
Peak level 66.8 %
Extraction speed 2.4 X
Track quality 100.0 %
Test CRC 0BF1A539
Copy CRC 0BF1A539
Accurately ripped (confidence 1) [F2B549E4] (AR v1)
Copy OK
Track 2
Filename C:\EAC rips\02 - Red Cage.wav
Pre-gap length 0:00:02.00
Peak level 79.4 %
Extraction speed 3.0 X
Track quality 100.0 %
Test CRC 3CAE7DF7
Copy CRC 3CAE7DF7
Accurately ripped (confidence 1) [012BD451] (AR v1)
Copy OK
Track 3
Filename C:\EAC rips\03 - Next Question.wav
Pre-gap length 0:00:00.37
Peak level 96.6 %
Extraction speed 3.4 X
Track quality 100.0 %
Test CRC 7D67943A
Copy CRC 7D67943A
Accurately ripped (confidence 1) [B15CC68A] (AR v1)
Copy OK
Track 4
Filename C:\EAC rips\04 - Four Feet of Slush.wav
Pre-gap length 0:00:01.00
Peak level 98.8 %
Extraction speed 3.8 X
Track quality 100.0 %
Test CRC 3F4C09BE
Copy CRC 3F4C09BE
Accurately ripped (confidence 1) [6B465715] (AR v1)
Copy OK
Track 5
Filename C:\EAC rips\05 - Free Range.wav
Pre-gap length 0:00:02.00
Peak level 71.6 %
Extraction speed 4.3 X
Track quality 100.0 %
Test CRC B8FBBD8B
Copy CRC B8FBBD8B
Accurately ripped (confidence 1) [5E137664] (AR v1)
Copy OK
All tracks accurately ripped
No errors occurred
End of status report
---- CUETools DB Plugin V2.1.4
[CTDB TOCID: .KpjYsHA8nIEBoTdyHhpt_swFD8-] found
Submit result: already submitted
Track | CTDB Status
1 | (1/1) Accurately ripped
2 | (1/1) Accurately ripped
3 | (1/1) Accurately ripped
4 | (1/1) Accurately ripped
5 | (1/1) Accurately ripped
==== Log checksum A99110CD038CC3F9485DD7D6C0C826B12A16E6E3D66CBC3620728D97F90D3987 ====
 
Содержание индексной карты (.CUE)
REM GENRE Jazz
REM DATE 2010
REM DISCID 540D6B05
REM COMMENT "ExactAudioCopy v1.0b3"
PERFORMER "The Engines"
TITLE "Wire and Brass"
FILE "01 - Trouble Distribution.wav" WAVE
TRACK 01 AUDIO
TITLE "Trouble Distribution"
PERFORMER " "
INDEX 01 00:00:00
TRACK 02 AUDIO
TITLE "Red Cage"
PERFORMER " "
INDEX 00 10:24:00
FILE "02 - Red Cage.wav" WAVE
INDEX 01 00:00:00
TRACK 03 AUDIO
TITLE "Next Question"
PERFORMER " "
INDEX 00 11:00:00
FILE "03 - Next Question.wav" WAVE
INDEX 01 00:00:00
TRACK 04 AUDIO
TITLE "Four Feet of Slush"
PERFORMER " "
INDEX 00 09:58:00
FILE "04 - Four Feet of Slush.wav" WAVE
INDEX 01 00:00:00
TRACK 05 AUDIO
TITLE "Free Range"
PERFORMER " "
INDEX 00 10:00:00
FILE "05 - Free Range.wav" WAVE
INDEX 01 00:00:00
Any questions -> support@pro-jazz.com. По всем вопросам пишите -> support@pro-jazz.com
17:48
188
Нет комментариев. Ваш будет первым!