Вы используете незарегистрированную версию компонента "Вкладки"!

Поиск

(avant-garde, free jazz) DKV Trio (Hamid Drake, Kent Kessler, Ken Vandermark) - Past Present 2012, FLAC (tracks+.cue), lossless

(avant-garde, free jazz) DKV Trio (Hamid Drake, Kent Kessler, Ken Vandermark) - Past Present 2012, FLAC (tracks+.cue), lossless
Треклист:


DKV Trio - Past Present 2012

Жанр:avant-garde, free jazz
Год выпуска: 2012
Издатель (лейбл):Not Two Records / MW 900-2
Формат: FLAC (tracks+.cue)
Битрейт аудио: lossless
Продолжительность: 6`20`01
Источник: what.cd, 6060842
Bass – Kent Kessler
Drums – Hamid Drake
Reeds – Ken Vandermark
Composed By – Don Cherry (disc 7 except track 7.4)
Composed By – DKV Trio (discs 1-6, track 7.4)
Mastered By – Dave Zuchowski
Recorded By – Paolo Zucca (tracks: 7-1 to 7-10)
Recorded By, Mixed By – Dave Zuchowski (tracks: 1-1 to 6-5)
 
CD 1 - Chicago, July 15, 2009


CD 1 - Chicago, July 15, 2009

01 - Part 1.1
02 - Part 1.2
03 - Part 1.3
04 - Part 2
05 - Part 3.1
06 - Part 3.2
07 - Part 3.3

 
.log
X Lossless Decoder version 20130602 (143.2)
XLD extraction logfile from 2013-06-07 09:52:28 +0400
DKV Trio / Past Present
Used drive : HL-DT-ST DVDRW GX30N (revision RP09)
Media type : Pressed CD
Ripper mode : XLD Secure Ripper
Disable audio cache : OK for the drive with a cache less than 1375KiB
Make use of C2 pointers : NO
Read offset correction : 6
Max retry count : 100
Gap status : Analyzed, Appended (except HTOA)
TOC of the extracted CD
Track | Start | Length | Start sector | End sector
---------------------------------------------------------
1 | 00:00:00 | 09:35:07 | 0 | 43131
2 | 09:35:07 | 11:30:51 | 43132 | 94932
3 | 21:05:58 | 06:40:31 | 94933 | 124963
4 | 27:46:14 | 15:48:28 | 124964 | 196091
5 | 43:34:42 | 07:17:11 | 196092 | 228877
6 | 50:51:53 | 08:56:73 | 228878 | 269150
7 | 59:48:51 | 12:19:19 | 269151 | 324594
AccurateRip Summary
Disc not found in AccurateRip DB.
All Tracks
Album gain : -6.08 dB
Peak : 1.000000
Statistics
Read error : 0
Jitter error (maybe fixed) : 0
Retry sector count : 0
Damaged sector count : 0
Track 01
Filename : /Users/anch/Music/FLAC/DKV Trio - 2009 - Past Present [MP3 320]/01/01 - Part 1.1.mp3
/Users/anch/Music/FLAC/DKV Trio - 2009 - Past Present [MP3 V0]/01/01 - Part 1.1.mp3
/Users/anch/Music/FLAC/DKV Trio - 2009 - Past Present [FLAC]/01/01 - Part 1.1.flac
Pre-gap length : 00:02:00
Track gain : -6.38 dB
Peak : 1.000000
CRC32 hash (test run) : 92CBA80C
CRC32 hash : 92CBA80C
CRC32 hash (skip zero) : 621E904B
AccurateRip v1 signature : A95A063D
AccurateRip v2 signature : A1B547B5
->Track not present in AccurateRip database.
Statistics
Read error : 0
Jitter error (maybe fixed) : 0
Retry sector count : 0
Damaged sector count : 0
Track 02
Filename : /Users/anch/Music/FLAC/DKV Trio - 2009 - Past Present [MP3 320]/01/02 - Part 1.2.mp3
/Users/anch/Music/FLAC/DKV Trio - 2009 - Past Present [MP3 V0]/01/02 - Part 1.2.mp3
/Users/anch/Music/FLAC/DKV Trio - 2009 - Past Present [FLAC]/01/02 - Part 1.2.flac
Track gain : -7.19 dB
Peak : 1.000000
CRC32 hash (test run) : 70A0FA55
CRC32 hash : 70A0FA55
CRC32 hash (skip zero) : 9B3F8BAC
AccurateRip v1 signature : 24C2E8FE
AccurateRip v2 signature : CAFB3EE4
->Track not present in AccurateRip database.
Statistics
Read error : 0
Jitter error (maybe fixed) : 0
Retry sector count : 0
Damaged sector count : 0
Track 03
Filename : /Users/anch/Music/FLAC/DKV Trio - 2009 - Past Present [MP3 320]/01/03 - Part 1.3.mp3
/Users/anch/Music/FLAC/DKV Trio - 2009 - Past Present [MP3 V0]/01/03 - Part 1.3.mp3
/Users/anch/Music/FLAC/DKV Trio - 2009 - Past Present [FLAC]/01/03 - Part 1.3.flac
Track gain : -4.42 dB
Peak : 1.000000
CRC32 hash (test run) : 6527ED77
CRC32 hash : 6527ED77
CRC32 hash (skip zero) : 0F2CF079
AccurateRip v1 signature : CAE83FB2
AccurateRip v2 signature : E6B05596
->Track not present in AccurateRip database.
Statistics
Read error : 0
Jitter error (maybe fixed) : 0
Retry sector count : 0
Damaged sector count : 0
Track 04
Filename : /Users/anch/Music/FLAC/DKV Trio - 2009 - Past Present [MP3 320]/01/04 - Part 2.mp3
/Users/anch/Music/FLAC/DKV Trio - 2009 - Past Present [MP3 V0]/01/04 - Part 2.mp3
/Users/anch/Music/FLAC/DKV Trio - 2009 - Past Present [FLAC]/01/04 - Part 2.flac
Pre-gap length : 00:04:00
Track gain : -6.41 dB
Peak : 1.000000
CRC32 hash (test run) : 4A7BE1EB
CRC32 hash : 4A7BE1EB
CRC32 hash (skip zero) : 6BA9914F
AccurateRip v1 signature : C0E3378C
AccurateRip v2 signature : 39931972
->Track not present in AccurateRip database.
Statistics
Read error : 0
Jitter error (maybe fixed) : 0
Retry sector count : 0
Damaged sector count : 0
Track 05
Filename : /Users/anch/Music/FLAC/DKV Trio - 2009 - Past Present [MP3 320]/01/05 - Part 3.1.mp3
/Users/anch/Music/FLAC/DKV Trio - 2009 - Past Present [MP3 V0]/01/05 - Part 3.1.mp3
/Users/anch/Music/FLAC/DKV Trio - 2009 - Past Present [FLAC]/01/05 - Part 3.1.flac
Pre-gap length : 00:04:00
Track gain : -3.51 dB
Peak : 1.000000
CRC32 hash (test run) : 9748BD5A
CRC32 hash : 9748BD5A
CRC32 hash (skip zero) : 062E6071
AccurateRip v1 signature : 6B177DBA
AccurateRip v2 signature : 2301C8DF
->Track not present in AccurateRip database.
Statistics
Read error : 0
Jitter error (maybe fixed) : 0
Retry sector count : 0
Damaged sector count : 0
Track 06
Filename : /Users/anch/Music/FLAC/DKV Trio - 2009 - Past Present [MP3 320]/01/06 - Part 3.2.mp3
/Users/anch/Music/FLAC/DKV Trio - 2009 - Past Present [MP3 V0]/01/06 - Part 3.2.mp3
/Users/anch/Music/FLAC/DKV Trio - 2009 - Past Present [FLAC]/01/06 - Part 3.2.flac
Track gain : -6.72 dB
Peak : 1.000000
CRC32 hash (test run) : 0931BB7A
CRC32 hash : 0931BB7A
CRC32 hash (skip zero) : 54B125EB
AccurateRip v1 signature : 3B640712
AccurateRip v2 signature : 0036FC49
->Track not present in AccurateRip database.
Statistics
Read error : 0
Jitter error (maybe fixed) : 0
Retry sector count : 0
Damaged sector count : 0
Track 07
Filename : /Users/anch/Music/FLAC/DKV Trio - 2009 - Past Present [MP3 320]/01/07 - Part 3.3.mp3
/Users/anch/Music/FLAC/DKV Trio - 2009 - Past Present [MP3 V0]/01/07 - Part 3.3.mp3
/Users/anch/Music/FLAC/DKV Trio - 2009 - Past Present [FLAC]/01/07 - Part 3.3.flac
Track gain : -4.05 dB
Peak : 1.000000
CRC32 hash (test run) : 44391794
CRC32 hash : 44391794
CRC32 hash (skip zero) : FFB436FB
AccurateRip v1 signature : 765E32D3
AccurateRip v2 signature : F2B80CD8
->Track not present in AccurateRip database.
Statistics
Read error : 0
Jitter error (maybe fixed) : 0
Retry sector count : 0
Damaged sector count : 0
No errors occurred
End of status report
 
.cue
TITLE "Past Present"
PERFORMER "DKV Trio"
REM GENRE "Free Jazz"
REM DATE "2009"
REM DISCNUMBER 1
REM TOTALDISCS 7
REM DISCID 6510E707
REM REPLAYGAIN_ALBUM_GAIN -6.08 dB
REM REPLAYGAIN_ALBUM_PEAK 1.000000
FILE "01 - Part 1.1.flac" WAVE
TRACK 01 AUDIO
TITLE "Part 1.1"
PERFORMER "DKV Trio"
REM COMMENT "Chicago, July 15, 2009"
REM REPLAYGAIN_TRACK_GAIN -6.38 dB
REM REPLAYGAIN_TRACK_PEAK 1.000000
INDEX 01 00:00:00
FILE "02 - Part 1.2.flac" WAVE
TRACK 02 AUDIO
TITLE "Part 1.2"
PERFORMER "DKV Trio"
REM COMMENT "Chicago, July 15, 2009"
REM REPLAYGAIN_TRACK_GAIN -7.19 dB
REM REPLAYGAIN_TRACK_PEAK 1.000000
INDEX 01 00:00:00
FILE "03 - Part 1.3.flac" WAVE
TRACK 03 AUDIO
TITLE "Part 1.3"
PERFORMER "DKV Trio"
REM COMMENT "Chicago, July 15, 2009"
REM REPLAYGAIN_TRACK_GAIN -4.42 dB
REM REPLAYGAIN_TRACK_PEAK 1.000000
INDEX 01 00:00:00
TRACK 04 AUDIO
TITLE "Part 2"
PERFORMER "DKV Trio"
REM COMMENT "Chicago, July 15, 2009"
REM REPLAYGAIN_TRACK_GAIN -6.41 dB
REM REPLAYGAIN_TRACK_PEAK 1.000000
INDEX 00 06:36:31
FILE "04 - Part 2.flac" WAVE
INDEX 01 00:00:00
TRACK 05 AUDIO
TITLE "Part 3.1"
PERFORMER "DKV Trio"
REM COMMENT "Chicago, July 15, 2009"
REM REPLAYGAIN_TRACK_GAIN -3.51 dB
REM REPLAYGAIN_TRACK_PEAK 1.000000
INDEX 00 15:44:28
FILE "05 - Part 3.1.flac" WAVE
INDEX 01 00:00:00
FILE "06 - Part 3.2.flac" WAVE
TRACK 06 AUDIO
TITLE "Part 3.2"
PERFORMER "DKV Trio"
REM COMMENT "Chicago, July 15, 2009"
REM REPLAYGAIN_TRACK_GAIN -6.72 dB
REM REPLAYGAIN_TRACK_PEAK 1.000000
INDEX 01 00:00:00
FILE "07 - Part 3.3.flac" WAVE
TRACK 07 AUDIO
TITLE "Part 3.3"
PERFORMER "DKV Trio"
REM COMMENT "Chicago, July 15, 2009"
REM REPLAYGAIN_TRACK_GAIN -4.05 dB
REM REPLAYGAIN_TRACK_PEAK 1.000000
INDEX 01 00:00:00
 
.accurip
[CUETools log; Date: 03/09/13 11:46:13; Version: 2.1.4]
[CTDB TOCID: wzRq2T6AWoF7ldhzMZIvamw0CjU-] found.
Track | CTDB Status
1 | (2/2) Accurately ripped
2 | (2/2) Accurately ripped
3 | (2/2) Accurately ripped
4 | (2/2) Accurately ripped
5 | (2/2) Accurately ripped
6 | (2/2) Accurately ripped
7 | (2/2) Accurately ripped
[AccurateRip ID: 00138ed1-00759379-6510e707] found.
Track [ CRC | V2 ] Status
01 [a95a063d|a1b547b5] (0+2/2) Accurately ripped
02 [24c2e8fe|cafb3ee4] (0+2/2) Accurately ripped
03 [cae83fb2|e6b05596] (0+2/2) Accurately ripped
04 [c0e3378c|39931972] (0+2/2) Accurately ripped
05 [6b177dba|2301c8df] (0+2/2) Accurately ripped
06 [3b640712|0036fc49] (0+2/2) Accurately ripped
07 [765e32d3|f2b80cd8] (0+2/2) Accurately ripped
Track Peak [ CRC32 ] [W/O NULL]
-- 100.0 [B7BA8843] [13884C10]
01 100.0 [92CBA80C] [621E904B]
02 100.0 [70A0FA55] [9B3F8BAC]
03 100.0 [6527ED77] [0F2CF079]
04 100.0 [4A7BE1EB] [6BA9914F]
05 100.0 [9748BD5A] [062E6071]
06 100.0 [0931BB7A] [54B125EB]
07 100.0 [44391794] [FFB436FB]
 
CD 2 - Chicago, January 6, 2010


CD 2 - Chicago, January 6, 2010

01 - Part 1.1
02 - Part 1.2
03 - Part 1.3

 
.log
X Lossless Decoder version 20130602 (143.2)
XLD extraction logfile from 2013-06-08 00:36:59 +0400
DKV Trio / Past Present
Used drive : HL-DT-ST DVDRW GX30N (revision RP09)
Media type : Pressed CD
Ripper mode : XLD Secure Ripper
Disable audio cache : OK for the drive with a cache less than 1375KiB
Make use of C2 pointers : NO
Read offset correction : 6
Max retry count : 100
Gap status : Analyzed, Appended (except HTOA)
TOC of the extracted CD
Track | Start | Length | Start sector | End sector
---------------------------------------------------------
1 | 00:00:00 | 17:18:26 | 0 | 77875
2 | 17:18:26 | 10:44:60 | 77876 | 126235
3 | 28:03:11 | 15:18:48 | 126236 | 195133
AccurateRip Summary
Disc not found in AccurateRip DB.
All Tracks
Album gain : -3.64 dB
Peak : 1.000000
Statistics
Read error : 0
Jitter error (maybe fixed) : 0
Retry sector count : 0
Damaged sector count : 0
Track 01
Filename : /Users/anch/Music/FLAC/DKV Trio - 2010 - Past Present [MP3 320]/02/01 - Part 1.1.mp3
/Users/anch/Music/FLAC/DKV Trio - 2010 - Past Present [MP3 V0]/02/01 - Part 1.1.mp3
/Users/anch/Music/FLAC/DKV Trio - 2010 - Past Present [FLAC]/02/01 - Part 1.1.flac
Pre-gap length : 00:02:00
Track gain : -3.54 dB
Peak : 1.000000
CRC32 hash (test run) : E7F8642B
CRC32 hash : E7F8642B
CRC32 hash (skip zero) : 4093ACB9
AccurateRip v1 signature : B4455C35
AccurateRip v2 signature : 17B0943A
->Track not present in AccurateRip database.
Statistics
Read error : 0
Jitter error (maybe fixed) : 0
Retry sector count : 0
Damaged sector count : 0
Track 02
Filename : /Users/anch/Music/FLAC/DKV Trio - 2010 - Past Present [MP3 320]/02/02 - Part 1.2.mp3
/Users/anch/Music/FLAC/DKV Trio - 2010 - Past Present [MP3 V0]/02/02 - Part 1.2.mp3
/Users/anch/Music/FLAC/DKV Trio - 2010 - Past Present [FLAC]/02/02 - Part 1.2.flac
Track gain : -5.25 dB
Peak : 1.000000
CRC32 hash (test run) : FA304D27
CRC32 hash : FA304D27
CRC32 hash (skip zero) : B4EA3D52
AccurateRip v1 signature : 5BAEEFC2
AccurateRip v2 signature : EA6D8095
->Track not present in AccurateRip database.
Statistics
Read error : 0
Jitter error (maybe fixed) : 0
Retry sector count : 0
Damaged sector count : 0
Track 03
Filename : /Users/anch/Music/FLAC/DKV Trio - 2010 - Past Present [MP3 320]/02/03 - Part 1.3.mp3
/Users/anch/Music/FLAC/DKV Trio - 2010 - Past Present [MP3 V0]/02/03 - Part 1.3.mp3
/Users/anch/Music/FLAC/DKV Trio - 2010 - Past Present [FLAC]/02/03 - Part 1.3.flac
Track gain : -0.61 dB
Peak : 1.000000
CRC32 hash (test run) : A3C0478A
CRC32 hash : A3C0478A
CRC32 hash (skip zero) : 61D7072C
AccurateRip v1 signature : 8A388919
AccurateRip v2 signature : F28CFDFA
->Track not present in AccurateRip database.
Statistics
Read error : 0
Jitter error (maybe fixed) : 0
Retry sector count : 0
Damaged sector count : 0
No errors occurred
End of status report
 
.cue
TITLE "Past Present"
PERFORMER "DKV Trio"
REM GENRE "Free Jazz"
REM DATE "2010"
REM DISCNUMBER 2
REM TOTALDISCS 7
REM DISCID 1B0A2903
REM REPLAYGAIN_ALBUM_GAIN -3.64 dB
REM REPLAYGAIN_ALBUM_PEAK 1.000000
FILE "01 - Part 1.1.flac" WAVE
TRACK 01 AUDIO
TITLE "Part 1.1"
PERFORMER "DKV Trio"
REM COMMENT "Chicago, January 6, 2010"
REM REPLAYGAIN_TRACK_GAIN -3.54 dB
REM REPLAYGAIN_TRACK_PEAK 1.000000
INDEX 01 00:00:00
FILE "02 - Part 1.2.flac" WAVE
TRACK 02 AUDIO
TITLE "Part 1.2"
PERFORMER "DKV Trio"
REM COMMENT "Chicago, January 6, 2010"
REM REPLAYGAIN_TRACK_GAIN -5.25 dB
REM REPLAYGAIN_TRACK_PEAK 1.000000
INDEX 01 00:00:00
FILE "03 - Part 1.3.flac" WAVE
TRACK 03 AUDIO
TITLE "Part 1.3"
PERFORMER "DKV Trio"
REM COMMENT "Chicago, January 6, 2010"
REM REPLAYGAIN_TRACK_GAIN -0.61 dB
REM REPLAYGAIN_TRACK_PEAK 1.000000
INDEX 01 00:00:00
 
.accurip
[CUETools log; Date: 03/09/13 11:59:01; Version: 2.1.4]
[CTDB TOCID: mvCS5cTsd0mFvKMjcOi4tNa74O8-] found.
Track | CTDB Status
1 | (2/2) Accurately ripped
2 | (2/2) Accurately ripped
3 | (2/2) Accurately ripped
[AccurateRip ID: 0006178e-001410b5-1b0a2903] found.
Track [ CRC | V2 ] Status
01 [b4455c35|17b0943a] (0+2/2) Accurately ripped
02 [5baeefc2|ea6d8095] (0+2/2) Accurately ripped
03 [8a388919|f28cfdfa] (0+2/2) Accurately ripped
Track Peak [ CRC32 ] [W/O NULL]
-- 100.0 [2DB7C3F3] [9D76E792]
01 100.0 [E7F8642B] [4093ACB9]
02 100.0 [FA304D27] [B4EA3D52]
03 100.0 [A3C0478A] [61D7072C]
 
CD 3 - Chicago, December 29, 2010


CD 3 - Chicago, December 29, 2010

01 - Part 1
02 - Part 2.1
03 - Part 2.2
04 - Part 2.3
05 - Part 3
06 - Part 4.1
07 - Part 4.2

 
.log
X Lossless Decoder version 20130602 (143.2)
XLD extraction logfile from 2013-06-08 01:20:20 +0400
DKV Trio / Past Present
Used drive : HL-DT-ST DVDRW GX30N (revision RP09)
Media type : Pressed CD
Ripper mode : XLD Secure Ripper
Disable audio cache : OK for the drive with a cache less than 1375KiB
Make use of C2 pointers : NO
Read offset correction : 6
Max retry count : 100
Gap status : Analyzed, Appended (except HTOA)
TOC of the extracted CD
Track | Start | Length | Start sector | End sector
---------------------------------------------------------
1 | 00:00:00 | 05:54:10 | 0 | 26559
2 | 05:54:10 | 11:31:65 | 26560 | 78449
3 | 17:26:00 | 07:45:25 | 78450 | 113349
4 | 25:11:25 | 10:22:71 | 113350 | 160070
5 | 35:34:21 | 08:37:11 | 160071 | 198856
6 | 44:11:32 | 14:04:68 | 198857 | 262224
7 | 58:16:25 | 09:05:40 | 262225 | 303139
AccurateRip Summary
Disc not found in AccurateRip DB.
All Tracks
Album gain : -3.73 dB
Peak : 1.000000
Statistics
Read error : 0
Jitter error (maybe fixed) : 0
Retry sector count : 0
Damaged sector count : 0
Track 01
Filename : /Users/anch/Music/FLAC/DKV Trio - 2010 - Past Present [MP3 320]/03/01 - Part 1.mp3
/Users/anch/Music/FLAC/DKV Trio - 2010 - Past Present [MP3 V0]/03/01 - Part 1.mp3
/Users/anch/Music/FLAC/DKV Trio - 2010 - Past Present [FLAC]/03/01 - Part 1.flac
Pre-gap length : 00:02:00
Track gain : -1.94 dB
Peak : 1.000000
CRC32 hash (test run) : 3C951EFE
CRC32 hash : 3C951EFE
CRC32 hash (skip zero) : 532FF8F4
AccurateRip v1 signature : 9FB794CC
AccurateRip v2 signature : AF8359E2
->Track not present in AccurateRip database.
Statistics
Read error : 0
Jitter error (maybe fixed) : 0
Retry sector count : 0
Damaged sector count : 0
Track 02
Filename : /Users/anch/Music/FLAC/DKV Trio - 2010 - Past Present [MP3 320]/03/02 - Part 2.1.mp3
/Users/anch/Music/FLAC/DKV Trio - 2010 - Past Present [MP3 V0]/03/02 - Part 2.1.mp3
/Users/anch/Music/FLAC/DKV Trio - 2010 - Past Present [FLAC]/03/02 - Part 2.1.flac
Pre-gap length : 00:04:00
Track gain : -4.03 dB
Peak : 1.000000
CRC32 hash (test run) : A9BD2E67
CRC32 hash : A9BD2E67
CRC32 hash (skip zero) : 5586D21D
AccurateRip v1 signature : EBD034BD
AccurateRip v2 signature : 15E4FE26
->Track not present in AccurateRip database.
Statistics
Read error : 0
Jitter error (maybe fixed) : 0
Retry sector count : 0
Damaged sector count : 0
Track 03
Filename : /Users/anch/Music/FLAC/DKV Trio - 2010 - Past Present [MP3 320]/03/03 - Part 2.2.mp3
/Users/anch/Music/FLAC/DKV Trio - 2010 - Past Present [MP3 V0]/03/03 - Part 2.2.mp3
/Users/anch/Music/FLAC/DKV Trio - 2010 - Past Present [FLAC]/03/03 - Part 2.2.flac
Track gain : -3.99 dB
Peak : 1.000000
CRC32 hash (test run) : 68044B6F
CRC32 hash : 68044B6F
CRC32 hash (skip zero) : 99452AD0
AccurateRip v1 signature : 7E5CFA72
AccurateRip v2 signature : 62B08E60
->Track not present in AccurateRip database.
Statistics
Read error : 0
Jitter error (maybe fixed) : 0
Retry sector count : 0
Damaged sector count : 0
Track 04
Filename : /Users/anch/Music/FLAC/DKV Trio - 2010 - Past Present [MP3 320]/03/04 - Part 2.3.mp3
/Users/anch/Music/FLAC/DKV Trio - 2010 - Past Present [MP3 V0]/03/04 - Part 2.3.mp3
/Users/anch/Music/FLAC/DKV Trio - 2010 - Past Present [FLAC]/03/04 - Part 2.3.flac
Track gain : -5.32 dB
Peak : 1.000000
CRC32 hash (test run) : EA064D56
CRC32 hash : EA064D56
CRC32 hash (skip zero) : E0052336
AccurateRip v1 signature : 8DD0C5EC
AccurateRip v2 signature : EEA3BE8A
->Track not present in AccurateRip database.
Statistics
Read error : 0
Jitter error (maybe fixed) : 0
Retry sector count : 0
Damaged sector count : 0
Track 05
Filename : /Users/anch/Music/FLAC/DKV Trio - 2010 - Past Present [MP3 320]/03/05 - Part 3.mp3
/Users/anch/Music/FLAC/DKV Trio - 2010 - Past Present [MP3 V0]/03/05 - Part 3.mp3
/Users/anch/Music/FLAC/DKV Trio - 2010 - Past Present [FLAC]/03/05 - Part 3.flac
Pre-gap length : 00:04:00
Track gain : 1.88 dB
Peak : 0.999969
CRC32 hash (test run) : 97965B3F
CRC32 hash : 97965B3F
CRC32 hash (skip zero) : 03F17908
AccurateRip v1 signature : 5E488E4D
AccurateRip v2 signature : 747433F8
->Track not present in AccurateRip database.
Statistics
Read error : 0
Jitter error (maybe fixed) : 0
Retry sector count : 0
Damaged sector count : 0
Track 06
Filename : /Users/anch/Music/FLAC/DKV Trio - 2010 - Past Present [MP3 320]/03/06 - Part 4.1.mp3
/Users/anch/Music/FLAC/DKV Trio - 2010 - Past Present [MP3 V0]/03/06 - Part 4.1.mp3
/Users/anch/Music/FLAC/DKV Trio - 2010 - Past Present [FLAC]/03/06 - Part 4.1.flac
Pre-gap length : 00:04:00
Track gain : -1.21 dB
Peak : 1.000000
CRC32 hash (test run) : DF06B2E1
CRC32 hash : DF06B2E1
CRC32 hash (skip zero) : 57113F98
AccurateRip v1 signature : B959C92E
AccurateRip v2 signature : ABB6A848
->Track not present in AccurateRip database.
Statistics
Read error : 0
Jitter error (maybe fixed) : 0
Retry sector count : 0
Damaged sector count : 0
Track 07
Filename : /Users/anch/Music/FLAC/DKV Trio - 2010 - Past Present [MP3 320]/03/07 - Part 4.2.mp3
/Users/anch/Music/FLAC/DKV Trio - 2010 - Past Present [MP3 V0]/03/07 - Part 4.2.mp3
/Users/anch/Music/FLAC/DKV Trio - 2010 - Past Present [FLAC]/03/07 - Part 4.2.flac
Track gain : -3.45 dB
Peak : 1.000000
CRC32 hash (test run) : D22D7B0F
CRC32 hash : D22D7B0F
CRC32 hash (skip zero) : 79832AF3
AccurateRip v1 signature : D219BBEE
AccurateRip v2 signature : FD81B420
->Track not present in AccurateRip database.
Statistics
Read error : 0
Jitter error (maybe fixed) : 0
Retry sector count : 0
Damaged sector count : 0
No errors occurred
End of status report
 
.cue
TITLE "Past Present"
PERFORMER "DKV Trio"
REM GENRE "Free Jazz"
REM DATE "2010"
REM DISCNUMBER 3
REM TOTALDISCS 7
REM DISCID 5B0FC907
REM REPLAYGAIN_ALBUM_GAIN -3.73 dB
REM REPLAYGAIN_ALBUM_PEAK 1.000000
FILE "01 - Part 1.flac" WAVE
TRACK 01 AUDIO
TITLE "Part 1"
PERFORMER "DKV Trio"
REM COMMENT "Chicago, December 29, 2010"
REM REPLAYGAIN_TRACK_GAIN -1.94 dB
REM REPLAYGAIN_TRACK_PEAK 1.000000
INDEX 01 00:00:00
TRACK 02 AUDIO
TITLE "Part 2.1"
PERFORMER "DKV Trio"
REM COMMENT "Chicago, December 29, 2010"
REM REPLAYGAIN_TRACK_GAIN -4.03 dB
REM REPLAYGAIN_TRACK_PEAK 1.000000
INDEX 00 05:50:10
FILE "02 - Part 2.1.flac" WAVE
INDEX 01 00:00:00
FILE "03 - Part 2.2.flac" WAVE
TRACK 03 AUDIO
TITLE "Part 2.2"
PERFORMER "DKV Trio"
REM COMMENT "Chicago, December 29, 2010"
REM REPLAYGAIN_TRACK_GAIN -3.99 dB
REM REPLAYGAIN_TRACK_PEAK 1.000000
INDEX 01 00:00:00
FILE "04 - Part 2.3.flac" WAVE
TRACK 04 AUDIO
TITLE "Part 2.3"
PERFORMER "DKV Trio"
REM COMMENT "Chicago, December 29, 2010"
REM REPLAYGAIN_TRACK_GAIN -5.32 dB
REM REPLAYGAIN_TRACK_PEAK 1.000000
INDEX 01 00:00:00
TRACK 05 AUDIO
TITLE "Part 3"
PERFORMER "DKV Trio"
REM COMMENT "Chicago, December 29, 2010"
REM REPLAYGAIN_TRACK_GAIN 1.88 dB
REM REPLAYGAIN_TRACK_PEAK 0.999969
INDEX 00 10:18:71
FILE "05 - Part 3.flac" WAVE
INDEX 01 00:00:00
TRACK 06 AUDIO
TITLE "Part 4.1"
PERFORMER "DKV Trio"
REM COMMENT "Chicago, December 29, 2010"
REM REPLAYGAIN_TRACK_GAIN -1.21 dB
REM REPLAYGAIN_TRACK_PEAK 1.000000
INDEX 00 08:33:11
FILE "06 - Part 4.1.flac" WAVE
INDEX 01 00:00:00
FILE "07 - Part 4.2.flac" WAVE
TRACK 07 AUDIO
TITLE "Part 4.2"
PERFORMER "DKV Trio"
REM COMMENT "Chicago, December 29, 2010"
REM REPLAYGAIN_TRACK_GAIN -3.45 dB
REM REPLAYGAIN_TRACK_PEAK 1.000000
INDEX 01 00:00:00
 
.accurip
[CUETools log; Date: 03/09/13 11:59:25; Version: 2.1.4]
[CTDB TOCID: cPekWr.XZNJT9Pzt9mRtm_wQjrk-] found.
Track | CTDB Status
1 | (2/2) Accurately ripped
2 | (2/2) Accurately ripped
3 | (2/2) Accurately ripped
4 | (2/2) Accurately ripped
5 | (2/2) Accurately ripped
6 | (2/2) Accurately ripped
7 | (2/2) Accurately ripped
[AccurateRip ID: 00116f7d-006ac05f-5b0fc907] found.
Track [ CRC | V2 ] Status
01 [9fb794cc|af8359e2] (0+2/2) Accurately ripped
02 [ebd034bd|15e4fe26] (0+2/2) Accurately ripped
03 [7e5cfa72|62b08e60] (0+2/2) Accurately ripped
04 [8dd0c5ec|eea3be8a] (0+2/2) Accurately ripped
05 [5e488e4d|747433f8] (0+2/2) Accurately ripped
06 [b959c92e|abb6a848] (0+2/2) Accurately ripped
07 [d219bbee|fd81b420] (0+2/2) Accurately ripped
Track Peak [ CRC32 ] [W/O NULL]
-- 100.0 [4190EE22] [ED6DE32D]
01 100.0 [3C951EFE] [532FF8F4]
02 100.0 [A9BD2E67] [5586D21D]
03 100.0 [68044B6F] [99452AD0]
04 100.0 [EA064D56] [E0052336]
05 100.0 [97965B3F] [03F17908]
06 100.0 [DF06B2E1] [57113F98]
07 100.0 [D22D7B0F] [79832AF3]
 
CD 4 - Milwaukee, December 30, 2010


CD 4 - Milwaukee, December 30, 2010

01 - Part 1
02 - Part 2.1
03 - Part 2.2
04 - Part 2.3

 
.log
X Lossless Decoder version 20130602 (143.2)
XLD extraction logfile from 2013-06-08 00:56:37 +0400
DKV Trio / Past Present
Used drive : HL-DT-ST DVDRW GX30N (revision RP09)
Media type : Pressed CD
Ripper mode : XLD Secure Ripper
Disable audio cache : OK for the drive with a cache less than 1375KiB
Make use of C2 pointers : NO
Read offset correction : 6
Max retry count : 100
Gap status : Analyzed, Appended (except HTOA)
TOC of the extracted CD
Track | Start | Length | Start sector | End sector
---------------------------------------------------------
1 | 00:00:00 | 06:42:02 | 0 | 30151
2 | 06:42:02 | 06:14:18 | 30152 | 58219
3 | 12:56:20 | 11:18:35 | 58220 | 109104
4 | 24:14:55 | 11:48:11 | 109105 | 162215
AccurateRip Summary
Disc not found in AccurateRip DB.
All Tracks
Album gain : -5.58 dB
Peak : 1.000000
Statistics
Read error : 0
Jitter error (maybe fixed) : 0
Retry sector count : 0
Damaged sector count : 0
Track 01
Filename : /Users/anch/Music/FLAC/DKV Trio - 2010 - Past Present [MP3 320]/05/01 - Part 1.mp3
/Users/anch/Music/FLAC/DKV Trio - 2010 - Past Present [MP3 V0]/05/01 - Part 1.mp3
/Users/anch/Music/FLAC/DKV Trio - 2010 - Past Present [FLAC]/05/01 - Part 1.flac
Pre-gap length : 00:02:00
Track gain : -6.98 dB
Peak : 1.000000
CRC32 hash (test run) : 770AB9E5
CRC32 hash : 770AB9E5
CRC32 hash (skip zero) : C8E87A6A
AccurateRip v1 signature : 921A7F1D
AccurateRip v2 signature : D7FF42DD
->Track not present in AccurateRip database.
Statistics
Read error : 0
Jitter error (maybe fixed) : 0
Retry sector count : 0
Damaged sector count : 0
Track 02
Filename : /Users/anch/Music/FLAC/DKV Trio - 2010 - Past Present [MP3 320]/05/02 - Part 2.1.mp3
/Users/anch/Music/FLAC/DKV Trio - 2010 - Past Present [MP3 V0]/05/02 - Part 2.1.mp3
/Users/anch/Music/FLAC/DKV Trio - 2010 - Past Present [FLAC]/05/02 - Part 2.1.flac
Pre-gap length : 00:04:00
Track gain : -5.31 dB
Peak : 1.000000
CRC32 hash (test run) : 322A23D6
CRC32 hash : 322A23D6
CRC32 hash (skip zero) : F8F23C1B
AccurateRip v1 signature : E3B95E91
AccurateRip v2 signature : 6423B79A
->Track not present in AccurateRip database.
Statistics
Read error : 0
Jitter error (maybe fixed) : 0
Retry sector count : 0
Damaged sector count : 0
Track 03
Filename : /Users/anch/Music/FLAC/DKV Trio - 2010 - Past Present [MP3 320]/05/03 - Part 2.2.mp3
/Users/anch/Music/FLAC/DKV Trio - 2010 - Past Present [MP3 V0]/05/03 - Part 2.2.mp3
/Users/anch/Music/FLAC/DKV Trio - 2010 - Past Present [FLAC]/05/03 - Part 2.2.flac
Track gain : -5.92 dB
Peak : 1.000000
CRC32 hash (test run) : 6AE77C38
CRC32 hash : 6AE77C38
CRC32 hash (skip zero) : 726119B5
AccurateRip v1 signature : 7E99F216
AccurateRip v2 signature : B5ED72A0
->Track not present in AccurateRip database.
Statistics
Read error : 0
Jitter error (maybe fixed) : 0
Retry sector count : 0
Damaged sector count : 0
Track 04
Filename : /Users/anch/Music/FLAC/DKV Trio - 2010 - Past Present [MP3 320]/05/04 - Part 2.3.mp3
/Users/anch/Music/FLAC/DKV Trio - 2010 - Past Present [MP3 V0]/05/04 - Part 2.3.mp3
/Users/anch/Music/FLAC/DKV Trio - 2010 - Past Present [FLAC]/05/04 - Part 2.3.flac
Track gain : 6.07 dB
Peak : 1.000000
CRC32 hash (test run) : 695E29BE
CRC32 hash : 695E29BE
CRC32 hash (skip zero) : 332F2374
AccurateRip v1 signature : 405E3ACA
AccurateRip v2 signature : 72925869
->Track not present in AccurateRip database.
Statistics
Read error : 0
Jitter error (maybe fixed) : 0
Retry sector count : 0
Damaged sector count : 0
No errors occurred
End of status report
 
.cue
TITLE "Past Present"
PERFORMER "DKV Trio"
REM GENRE "Free Jazz"
REM DATE "2010"
REM DISCNUMBER 4
REM TOTALDISCS 7
REM DISCID 30087204
REM REPLAYGAIN_ALBUM_GAIN -5.58 dB
REM REPLAYGAIN_ALBUM_PEAK 1.000000
FILE "01 - Part 1.flac" WAVE
TRACK 01 AUDIO
TITLE "Part 1"
PERFORMER "DKV Trio"
REM COMMENT "Milwaukee, December 30, 2010"
REM REPLAYGAIN_TRACK_GAIN -6.98 dB
REM REPLAYGAIN_TRACK_PEAK 1.000000
INDEX 01 00:00:00
TRACK 02 AUDIO
TITLE "Part 2.1"
PERFORMER "DKV Trio"
REM COMMENT "Milwaukee, December 30, 2010"
REM REPLAYGAIN_TRACK_GAIN -5.31 dB
REM REPLAYGAIN_TRACK_PEAK 1.000000
INDEX 00 06:38:02
FILE "02 - Part 2.1.flac" WAVE
INDEX 01 00:00:00
FILE "03 - Part 2.2.flac" WAVE
TRACK 03 AUDIO
TITLE "Part 2.2"
PERFORMER "DKV Trio"
REM COMMENT "Milwaukee, December 30, 2010"
REM REPLAYGAIN_TRACK_GAIN -5.92 dB
REM REPLAYGAIN_TRACK_PEAK 1.000000
INDEX 01 00:00:00
FILE "04 - Part 2.3.flac" WAVE
TRACK 04 AUDIO
TITLE "Part 2.3"
PERFORMER "DKV Trio"
REM COMMENT "Milwaukee, December 30, 2010"
REM REPLAYGAIN_TRACK_GAIN 6.07 dB
REM REPLAYGAIN_TRACK_PEAK 1.000000
INDEX 01 00:00:00
 
.accurip
CUETools log; Date: 03/09/13 12:00:37; Version: 2.1.4]
[CTDB TOCID: d3HVDH63qCokXujnykE17EULnko-] found.
Track | CTDB Status
1 | (2/2) Accurately ripped
2 | (2/2) Accurately ripped
3 | (2/2) Accurately ripped
4 | (2/2) Accurately ripped
[AccurateRip ID: 00057d0d-00169ee1-30087204] found.
Track [ CRC | V2 ] Status
01 [921a7f1d|d7ff42dd] (0+2/2) Accurately ripped
02 [e3b95e91|6423b79a] (0+2/2) Accurately ripped
03 [7e99f216|b5ed72a0] (0+2/2) Accurately ripped
04 [405e3aca|72925869] (0+2/2) Accurately ripped
Track Peak [ CRC32 ] [W/O NULL]
-- 100.0 [288CD16E] [89ADD15C]
01 100.0 [770AB9E5] [C8E87A6A]
02 100.0 [322A23D6] [F8F23C1B]
03 100.0 [6AE77C38] [726119B5]
04 100.0 [695E29BE] [332F2374]
 
CD 5 - Milwaukee, December 27, 2011


CD 5 - Milwaukee, December 27, 2011

01 - Part 1.1
02 - Part 1.2
03 - Part 2.1
04 - Part 2.2
05 - Part 2.3

 
.log
X Lossless Decoder version 20130602 (143.2)
XLD extraction logfile from 2013-06-08 00:14:19 +0400
DKV Trio / Past Present
Used drive : HL-DT-ST DVDRW GX30N (revision RP09)
Media type : Pressed CD
Ripper mode : XLD Secure Ripper
Disable audio cache : OK for the drive with a cache less than 1375KiB
Make use of C2 pointers : NO
Read offset correction : 6
Max retry count : 100
Gap status : Analyzed, Appended (except HTOA)
TOC of the extracted CD
Track | Start | Length | Start sector | End sector
---------------------------------------------------------
1 | 00:00:00 | 09:12:36 | 0 | 41435
2 | 09:12:36 | 10:14:73 | 41436 | 87558
3 | 19:27:34 | 12:33:41 | 87559 | 144074
4 | 32:01:00 | 07:47:30 | 144075 | 179129
5 | 39:48:30 | 15:27:48 | 179130 | 248702
AccurateRip Summary
Disc not found in AccurateRip DB.
All Tracks
Album gain : -3.50 dB
Peak : 1.000000
Statistics
Read error : 0
Jitter error (maybe fixed) : 0
Retry sector count : 0
Damaged sector count : 0
Track 01
Filename : /Users/anch/Music/FLAC/DKV Trio - 2011 - Past Present [MP3 320]/05/01 - Part 1.1.mp3
/Users/anch/Music/FLAC/DKV Trio - 2011 - Past Present [MP3 V0]/05/01 - Part 1.1.mp3
/Users/anch/Music/FLAC/DKV Trio - 2011 - Past Present [FLAC]/05/01 - Part 1.1.flac
Pre-gap length : 00:02:00
Track gain : -4.84 dB
Peak : 1.000000
CRC32 hash (test run) : 6C98190A
CRC32 hash : 6C98190A
CRC32 hash (skip zero) : 17844007
AccurateRip v1 signature : C5F189D5
AccurateRip v2 signature : 48BDF25A
->Track not present in AccurateRip database.
Statistics
Read error : 0
Jitter error (maybe fixed) : 0
Retry sector count : 0
Damaged sector count : 0
Track 02
Filename : /Users/anch/Music/FLAC/DKV Trio - 2011 - Past Present [MP3 320]/05/02 - Part 1.2.mp3
/Users/anch/Music/FLAC/DKV Trio - 2011 - Past Present [MP3 V0]/05/02 - Part 1.2.mp3
/Users/anch/Music/FLAC/DKV Trio - 2011 - Past Present [FLAC]/05/02 - Part 1.2.flac
Track gain : -3.03 dB
Peak : 1.000000
CRC32 hash (test run) : CC32A535
CRC32 hash : CC32A535
CRC32 hash (skip zero) : 167186DC
AccurateRip v1 signature : 19F7D058
AccurateRip v2 signature : AEF067FD
->Track not present in AccurateRip database.
Statistics
Read error : 0
Jitter error (maybe fixed) : 0
Retry sector count : 0
Damaged sector count : 0
Track 03
Filename : /Users/anch/Music/FLAC/DKV Trio - 2011 - Past Present [MP3 320]/05/03 - Part 2.1.mp3
/Users/anch/Music/FLAC/DKV Trio - 2011 - Past Present [MP3 V0]/05/03 - Part 2.1.mp3
/Users/anch/Music/FLAC/DKV Trio - 2011 - Past Present [FLAC]/05/03 - Part 2.1.flac
Pre-gap length : 00:04:00
Track gain : -2.36 dB
Peak : 1.000000
CRC32 hash (test run) : B10BABD1
CRC32 hash : B10BABD1
CRC32 hash (skip zero) : 864B7A6E
AccurateRip v1 signature : 2D77EE50
AccurateRip v2 signature : A9DDD395
->Track not present in AccurateRip database.
Statistics
Read error : 0
Jitter error (maybe fixed) : 0
Retry sector count : 0
Damaged sector count : 0
Track 04
Filename : /Users/anch/Music/FLAC/DKV Trio - 2011 - Past Present [MP3 320]/05/04 - Part 2.2.mp3
/Users/anch/Music/FLAC/DKV Trio - 2011 - Past Present [MP3 V0]/05/04 - Part 2.2.mp3
/Users/anch/Music/FLAC/DKV Trio - 2011 - Past Present [FLAC]/05/04 - Part 2.2.flac
Track gain : -2.44 dB
Peak : 1.000000
CRC32 hash (test run) : B5C74D47
CRC32 hash : B5C74D47
CRC32 hash (skip zero) : E21C5BBB
AccurateRip v1 signature : 8D4B3B73
AccurateRip v2 signature : BC6F6726
->Track not present in AccurateRip database.
Statistics
Read error : 0
Jitter error (maybe fixed) : 0
Retry sector count : 0
Damaged sector count : 0
Track 05
Filename : /Users/anch/Music/FLAC/DKV Trio - 2011 - Past Present [MP3 320]/05/05 - Part 2.3.mp3
/Users/anch/Music/FLAC/DKV Trio - 2011 - Past Present [MP3 V0]/05/05 - Part 2.3.mp3
/Users/anch/Music/FLAC/DKV Trio - 2011 - Past Present [FLAC]/05/05 - Part 2.3.flac
Track gain : -2.80 dB
Peak : 1.000000
CRC32 hash (test run) : EE77916F
CRC32 hash : EE77916F
CRC32 hash (skip zero) : A6BB74E7
AccurateRip v1 signature : 424DF4AF
AccurateRip v2 signature : 7ED46E8B
->Track not present in AccurateRip database.
Statistics
Read error : 0
Jitter error (maybe fixed) : 0
Retry sector count : 0
Damaged sector count : 0
No errors occurred
End of status report
 
.cue
TITLE "Past Present"
PERFORMER "DKV Trio"
REM GENRE "Free Jazz"
REM DATE "2011"
REM DISCNUMBER 5
REM TOTALDISCS 7
REM DISCID 3E0CF405
REM REPLAYGAIN_ALBUM_GAIN -3.50 dB
REM REPLAYGAIN_ALBUM_PEAK 1.000000
FILE "01 - Part 1.1.flac" WAVE
TRACK 01 AUDIO
TITLE "Part 1.1"
PERFORMER "DKV Trio"
REM COMMENT "Milwaukee, December 27, 2011"
REM REPLAYGAIN_TRACK_GAIN -4.84 dB
REM REPLAYGAIN_TRACK_PEAK 1.000000
INDEX 01 00:00:00
FILE "02 - Part 1.2.flac" WAVE
TRACK 02 AUDIO
TITLE "Part 1.2"
PERFORMER "DKV Trio"
REM COMMENT "Milwaukee, December 27, 2011"
REM REPLAYGAIN_TRACK_GAIN -3.03 dB
REM REPLAYGAIN_TRACK_PEAK 1.000000
INDEX 01 00:00:00
TRACK 03 AUDIO
TITLE "Part 2.1"
PERFORMER "DKV Trio"
REM COMMENT "Milwaukee, December 27, 2011"
REM REPLAYGAIN_TRACK_GAIN -2.36 dB
REM REPLAYGAIN_TRACK_PEAK 1.000000
INDEX 00 10:10:73
FILE "03 - Part 2.1.flac" WAVE
INDEX 01 00:00:00
FILE "04 - Part 2.2.flac" WAVE
TRACK 04 AUDIO
TITLE "Part 2.2"
PERFORMER "DKV Trio"
REM COMMENT "Milwaukee, December 27, 2011"
REM REPLAYGAIN_TRACK_GAIN -2.44 dB
REM REPLAYGAIN_TRACK_PEAK 1.000000
INDEX 01 00:00:00
FILE "05 - Part 2.3.flac" WAVE
TRACK 05 AUDIO
TITLE "Part 2.3"
PERFORMER "DKV Trio"
REM COMMENT "Milwaukee, December 27, 2011"
REM REPLAYGAIN_TRACK_GAIN -2.80 dB
REM REPLAYGAIN_TRACK_PEAK 1.000000
INDEX 01 00:00:00
 
.accurip
[CUETools log; Date: 03/09/13 12:00:56; Version: 2.1.4]
[CTDB TOCID: FVwN4dROnVy83D6fFI4g8Csrnq8-] found.
Track | CTDB Status
1 | (2/2) Accurately ripped
2 | (2/2) Accurately ripped
3 | (2/2) Accurately ripped
4 | (2/2) Accurately ripped
5 | (2/2) Accurately ripped
[AccurateRip ID: 000ab1e7-00328096-3e0cf405] found.
Track [ CRC | V2 ] Status
01 [c5f189d5|48bdf25a] (0+2/2) Accurately ripped
02 [19f7d058|aef067fd] (0+2/2) Accurately ripped
03 [2d77ee50|a9ddd395] (0+2/2) Accurately ripped
04 [8d4b3b73|bc6f6726] (0+2/2) Accurately ripped
05 [424df4af|7ed46e8b] (0+2/2) Accurately ripped
Track Peak [ CRC32 ] [W/O NULL]
-- 100.0 [B760ED18] [5E33092D]
01 100.0 [6C98190A] [17844007]
02 100.0 [CC32A535] [167186DC]
03 100.0 [B10BABD1] [864B7A6E]
04 100.0 [B5C74D47] [E21C5BBB]
05 100.0 [EE77916F] [A6BB74E7]
 
CD 6 - Chicago, December 28, 2011


CD 6 - Chicago, December 28, 2011

01 - Part 1
02 - Part 2.1
03 - Part 2.2
04 - Part 2.3
05 - Part 3

 
.log
X Lossless Decoder version 20130602 (143.2)
XLD extraction logfile from 2013-06-07 01:13:22 +0400
DKV Trio / Past Present
Used drive : HL-DT-ST DVDRW GX30N (revision RP09)
Media type : Pressed CD
Ripper mode : XLD Secure Ripper
Disable audio cache : OK for the drive with a cache less than 1375KiB
Make use of C2 pointers : NO
Read offset correction : 6
Max retry count : 100
Gap status : Analyzed, Appended (except HTOA)
TOC of the extracted CD
Track | Start | Length | Start sector | End sector
---------------------------------------------------------
1 | 00:00:00 | 15:27:74 | 0 | 69598
2 | 15:27:74 | 07:32:68 | 69599 | 103566
3 | 23:00:67 | 08:09:56 | 103567 | 140297
4 | 31:10:48 | 10:20:33 | 140298 | 186830
5 | 41:31:06 | 15:07:45 | 186831 | 254900
AccurateRip Summary
Disc not found in AccurateRip DB.
All Tracks
Album gain : -3.59 dB
Peak : 1.000000
Statistics
Read error : 0
Jitter error (maybe fixed) : 0
Retry sector count : 0
Damaged sector count : 0
Track 01
Filename : /Users/anch/Music/FLAC/DKV Trio - 2011 - Past Present [MP3 320]/06/01 - Part 1.mp3
/Users/anch/Music/FLAC/DKV Trio - 2011 - Past Present [MP3 V0]/06/01 - Part 1.mp3
/Users/anch/Music/FLAC/DKV Trio - 2011 - Past Present [FLAC]/06/01 - Part 1.flac
Pre-gap length : 00:02:00
Track gain : -4.09 dB
Peak : 1.000000
CRC32 hash (test run) : 47645328
CRC32 hash : 47645328
CRC32 hash (skip zero) : 1B768B6D
AccurateRip v1 signature : 02C63986
AccurateRip v2 signature : 636BEDF2
->Track not present in AccurateRip database.
Statistics
Read error : 0
Jitter error (maybe fixed) : 0
Retry sector count : 0
Damaged sector count : 0
Track 02
Filename : /Users/anch/Music/FLAC/DKV Trio - 2011 - Past Present [MP3 320]/06/02 - Part 2.1.mp3
/Users/anch/Music/FLAC/DKV Trio - 2011 - Past Present [MP3 V0]/06/02 - Part 2.1.mp3
/Users/anch/Music/FLAC/DKV Trio - 2011 - Past Present [FLAC]/06/02 - Part 2.1.flac
Pre-gap length : 00:04:00
Track gain : -3.63 dB
Peak : 1.000000
CRC32 hash (test run) : 1A71B66F
CRC32 hash : 1A71B66F
CRC32 hash (skip zero) : 203FF5A4
AccurateRip v1 signature : 1521D9D9
AccurateRip v2 signature : EC0A76FC
->Track not present in AccurateRip database.
Statistics
Read error : 0
Jitter error (maybe fixed) : 0
Retry sector count : 0
Damaged sector count : 0
Track 03
Filename : /Users/anch/Music/FLAC/DKV Trio - 2011 - Past Present [MP3 320]/06/03 - Part 2.2.mp3
/Users/anch/Music/FLAC/DKV Trio - 2011 - Past Present [MP3 V0]/06/03 - Part 2.2.mp3
/Users/anch/Music/FLAC/DKV Trio - 2011 - Past Present [FLAC]/06/03 - Part 2.2.flac
Track gain : -1.42 dB
Peak : 0.999969
CRC32 hash (test run) : A3CD42FA
CRC32 hash : A3CD42FA
CRC32 hash (skip zero) : 16EC32E3
AccurateRip v1 signature : 9033ECBF
AccurateRip v2 signature : 9F2934E1
->Track not present in AccurateRip database.
Statistics
Read error : 0
Jitter error (maybe fixed) : 0
Retry sector count : 0
Damaged sector count : 0
Track 04
Filename : /Users/anch/Music/FLAC/DKV Trio - 2011 - Past Present [MP3 320]/06/04 - Part 2.3.mp3
/Users/anch/Music/FLAC/DKV Trio - 2011 - Past Present [MP3 V0]/06/04 - Part 2.3.mp3
/Users/anch/Music/FLAC/DKV Trio - 2011 - Past Present [FLAC]/06/04 - Part 2.3.flac
Track gain : -4.63 dB
Peak : 1.000000
CRC32 hash (test run) : 4F3A9D1F
CRC32 hash : 4F3A9D1F
CRC32 hash (skip zero) : 8B086590
AccurateRip v1 signature : B83356F6
AccurateRip v2 signature : C029294C
->Track not present in AccurateRip database.
Statistics
Read error : 0
Jitter error (maybe fixed) : 0
Retry sector count : 0
Damaged sector count : 0
Track 05
Filename : /Users/anch/Music/FLAC/DKV Trio - 2011 - Past Present [MP3 320]/06/05 - Part 3.mp3
/Users/anch/Music/FLAC/DKV Trio - 2011 - Past Present [MP3 V0]/06/05 - Part 3.mp3
/Users/anch/Music/FLAC/DKV Trio - 2011 - Past Present [FLAC]/06/05 - Part 3.flac
Pre-gap length : 00:04:00
Track gain : -1.58 dB
Peak : 1.000000
CRC32 hash (test run) : 8EC483EB
CRC32 hash : 8EC483EB
CRC32 hash (skip zero) : 484B2677
AccurateRip v1 signature : D67C68AA
AccurateRip v2 signature : 4283A606
->Track not present in AccurateRip database.
Statistics
Read error : 0
Jitter error (maybe fixed) : 0
Retry sector count : 0
Damaged sector count : 0
No errors occurred
End of status report
 
.cue
TITLE "Past Present"
PERFORMER "DKV Trio"
REM GENRE "Free Jazz"
REM DATE "2011"
REM DISCNUMBER 6
REM TOTALDISCS 7
REM DISCID 480D4605
REM REPLAYGAIN_ALBUM_GAIN -3.59 dB
REM REPLAYGAIN_ALBUM_PEAK 1.000000
FILE "01 - Part 1.flac" WAVE
TRACK 01 AUDIO
TITLE "Part 1"
PERFORMER "DKV Trio"
REM COMMENT "Chicago, December 28, 2011"
REM REPLAYGAIN_TRACK_GAIN -4.09 dB
REM REPLAYGAIN_TRACK_PEAK 1.000000
INDEX 01 00:00:00
TRACK 02 AUDIO
TITLE "Part 2.1"
PERFORMER "DKV Trio"
REM COMMENT "Chicago, December 28, 2011"
REM REPLAYGAIN_TRACK_GAIN -3.63 dB
REM REPLAYGAIN_TRACK_PEAK 1.000000
INDEX 00 15:23:74
FILE "02 - Part 2.1.flac" WAVE
INDEX 01 00:00:00
FILE "03 - Part 2.2.flac" WAVE
TRACK 03 AUDIO
TITLE "Part 2.2"
PERFORMER "DKV Trio"
REM COMMENT "Chicago, December 28, 2011"
REM REPLAYGAIN_TRACK_GAIN -1.42 dB
REM REPLAYGAIN_TRACK_PEAK 0.999969
INDEX 01 00:00:00
FILE "04 - Part 2.3.flac" WAVE
TRACK 04 AUDIO
TITLE "Part 2.3"
PERFORMER "DKV Trio"
REM COMMENT "Chicago, December 28, 2011"
REM REPLAYGAIN_TRACK_GAIN -4.63 dB
REM REPLAYGAIN_TRACK_PEAK 1.000000
INDEX 01 00:00:00
TRACK 05 AUDIO
TITLE "Part 3"
PERFORMER "DKV Trio"
REM COMMENT "Chicago, December 28, 2011"
REM REPLAYGAIN_TRACK_GAIN -1.58 dB
REM REPLAYGAIN_TRACK_PEAK 1.000000
INDEX 00 10:16:33
FILE "05 - Part 3.flac" WAVE
INDEX 01 00:00:00
 
.accurip
[CUETools log; Date: 03/09/13 12:01:17; Version: 2.1.4]
[CTDB TOCID: jDmClIpLdXxTtVf5w.UjnqenJNs-] found.
Track | CTDB Status
1 | (2/2) Accurately ripped
2 | (2/2) Accurately ripped
3 | (2/2) Accurately ripped
4 | (2/2) Accurately ripped
5 | (2/2) Accurately ripped
[AccurateRip ID: 000b85fc-003504dd-480d4605] found.
Track [ CRC | V2 ] Status
01 [02c63986|636bedf2] (0+2/2) Accurately ripped
02 [1521d9d9|ec0a76fc] (0+2/2) Accurately ripped
03 [9033ecbf|9f2934e1] (0+2/2) Accurately ripped
04 [b83356f6|c029294c] (0+2/2) Accurately ripped
05 [d67c68aa|4283a606] (0+2/2) Accurately ripped
Track Peak [ CRC32 ] [W/O NULL]
-- 100.0 [5FC5E79F] [D70733FF]
01 100.0 [47645328] [1B768B6D]
02 100.0 [1A71B66F] [203FF5A4]
03 100.0 [A3CD42FA] [16EC32E3]
04 100.0 [4F3A9D1F] [8B086590]
05 100.0 [8EC483EB] [484B2677]
 
CD 7 - DKV plays the music of Don Cherry (Sant'Anna Arresi, Sardinia, August 31, 2008)


CD 7 - DKV plays the music of Don Cherry (Sant'Anna Arresi, Sardinia, August 31, 2008)

01 - Brown Rice
02 - Orfeu Negro Pt. 1
03 - Dios E Diablo
04 - Introduction
05 - Orfeu Negro Pt. 2
06 - The Thing
07 - Remembrance Pt. 1
08 - Elphantasy
09 - Music Now
10 - Remembrance Pt. 2

 
.log
X Lossless Decoder version 20130602 (143.2)
XLD extraction logfile from 2013-06-07 00:52:33 +0400
DKV Trio / DKV Plays The Music Of Don Cherry
Used drive : HL-DT-ST DVDRW GX30N (revision RP09)
Media type : Pressed CD
Ripper mode : XLD Secure Ripper
Disable audio cache : OK for the drive with a cache less than 1375KiB
Make use of C2 pointers : NO
Read offset correction : 6
Max retry count : 100
Gap status : Analyzed, Appended (except HTOA)
TOC of the extracted CD
Track | Start | Length | Start sector | End sector
---------------------------------------------------------
1 | 00:00:00 | 09:22:72 | 0 | 42221
2 | 09:22:72 | 02:55:29 | 42222 | 55375
3 | 12:18:26 | 08:32:28 | 55376 | 93803
4 | 20:50:54 | 04:28:47 | 93804 | 113950
5 | 25:19:26 | 05:39:32 | 113951 | 139407
6 | 30:58:58 | 02:20:47 | 139408 | 149954
7 | 33:19:30 | 01:41:22 | 149955 | 157551
8 | 35:00:52 | 06:12:57 | 157552 | 185508
9 | 41:13:34 | 02:42:17 | 185509 | 197675
10 | 43:55:51 | 05:16:12 | 197676 | 221387
AccurateRip Summary
Disc not found in AccurateRip DB.
All Tracks
Album gain : -1.98 dB
Peak : 1.000000
Statistics
Read error : 0
Jitter error (maybe fixed) : 0
Retry sector count : 0
Damaged sector count : 0
Track 01
Filename : /Users/anch/Music/FLAC/DKV Trio - 2008 - DKV Plays The Music Of Don Cherry [MP3 320]/07/01 - Brown Rice.mp3
/Users/anch/Music/FLAC/DKV Trio - 2008 - DKV Plays The Music Of Don Cherry [MP3 V0]/07/01 - Brown Rice.mp3
/Users/anch/Music/FLAC/DKV Trio - 2008 - DKV Plays The Music Of Don Cherry [FLAC]/07/01 - Brown Rice.flac
Pre-gap length : 00:02:00
Track gain : -3.13 dB
Peak : 1.000000
CRC32 hash (test run) : 2070555D
CRC32 hash : 2070555D
CRC32 hash (skip zero) : AF325BF0
AccurateRip v1 signature : DB6B443E
AccurateRip v2 signature : 1F0971D6
->Track not present in AccurateRip database.
Statistics
Read error : 0
Jitter error (maybe fixed) : 0
Retry sector count : 0
Damaged sector count : 0
Track 02
Filename : /Users/anch/Music/FLAC/DKV Trio - 2008 - DKV Plays The Music Of Don Cherry [MP3 320]/07/02 - Orfeu Negro Pt. 1.mp3
/Users/anch/Music/FLAC/DKV Trio - 2008 - DKV Plays The Music Of Don Cherry [MP3 V0]/07/02 - Orfeu Negro Pt. 1.mp3
/Users/anch/Music/FLAC/DKV Trio - 2008 - DKV Plays The Music Of Don Cherry [FLAC]/07/02 - Orfeu Negro Pt. 1.flac
Track gain : -2.89 dB
Peak : 1.000000
CRC32 hash (test run) : F8292C09
CRC32 hash : F8292C09
CRC32 hash (skip zero) : 1663EE43
AccurateRip v1 signature : 934CBBD8
AccurateRip v2 signature : 12BF0D2C
->Track not present in AccurateRip database.
Statistics
Read error : 0
Jitter error (maybe fixed) : 0
Retry sector count : 0
Damaged sector count : 0
Track 03
Filename : /Users/anch/Music/FLAC/DKV Trio - 2008 - DKV Plays The Music Of Don Cherry [MP3 320]/07/03 - Dios E Diablo.mp3
/Users/anch/Music/FLAC/DKV Trio - 2008 - DKV Plays The Music Of Don Cherry [MP3 V0]/07/03 - Dios E Diablo.mp3
/Users/anch/Music/FLAC/DKV Trio - 2008 - DKV Plays The Music Of Don Cherry [FLAC]/07/03 - Dios E Diablo.flac
Track gain : -1.14 dB
Peak : 0.999969
CRC32 hash (test run) : A0F5664C
CRC32 hash : A0F5664C
CRC32 hash (skip zero) : 9859A752
AccurateRip v1 signature : FF93FA79
AccurateRip v2 signature : 2DCEADCE
->Track not present in AccurateRip database.
Statistics
Read error : 0
Jitter error (maybe fixed) : 0
Retry sector count : 0
Damaged sector count
Any questions -> support@pro-jazz.com. По всем вопросам пишите -> support@pro-jazz.com
17:48
191
Нет комментариев. Ваш будет первым!