Вы используете незарегистрированную версию компонента "Вкладки"!

Поиск

(Free Improvisation) Urs Leimgruber, Jacques Demierre, Barre Phillips - Wing Vane - 2001, FLAC (image+.cue), lossless

(Free Improvisation) Urs Leimgruber, Jacques Demierre, Barre Phillips - Wing Vane - 2001, FLAC (image+.cue), lossless
Треклист:
Urs Leimgruber, Jacques Demierre, Barre Phillips / Wing Vane
Жанр: Free Improvisation
Страна-производитель диска: Canada
Год издания: 2001
Издатель (лейбл): Les Disques Victo
Номер по каталогу: CD 079
Аудиокодек: FLAC (*.flac)
Тип рипа: image+.cue
Битрейт аудио: lossless
Продолжительность: 63:44
Источник (релизер): cd
Наличие сканов в содержимом раздачи: нет
Треклист:
1 Wing Vane 18:55
2 Karypso 9:39
3 Distance 10:11
4 Time Was 4:24
5 Forwaard 7:16
6 Organically Yours 13:22
 
Лог создания рипа
Exact Audio Copy V1.0 beta 2 from 29. April 2011
EAC extraction logfile from 3. September 2013, 12:30
Urs Leimgruber, Jacques Demierre, Barre Phillips / Wing Vane
Used drive : Optiarc DVD RW AD-7170A Adapter: 0 ID: 0
Read mode : Secure
Utilize accurate stream : Yes
Defeat audio cache : Yes
Make use of C2 pointers : No
Read offset correction : 48
Overread into Lead-In and Lead-Out : No
Fill up missing offset samples with silence : Yes
Delete leading and trailing silent blocks : No
Null samples used in CRC calculations : Yes
Used interface : Native Win32 interface for Win NT & 2000
Used output format : User Defined Encoder
Selected bitrate : 320 kBit/s
Quality : High
Add ID3 tag : No
Command line compressor : C:\Program Files\Exact Audio Copy\Flac\flac.exe
Additional command line options : -V -8 -T "Date=%year%" -T "Genre=%genre%" %source%
TOC of the extracted CD
Track | Start | Length | Start sector | End sector
---------------------------------------------------------
1 | 0:00.20 | 18:52.03 | 20 | 84922
2 | 18:52.23 | 9:39.20 | 84923 | 128367
3 | 28:31.43 | 10:11.37 | 128368 | 174229
4 | 38:43.05 | 4:24.23 | 174230 | 194052
5 | 43:07.28 | 7:15.50 | 194053 | 226727
6 | 50:23.03 | 13:21.41 | 226728 | 286843
Range status and errors
Selected range
Filename K:\ЕАС\Urs Leimgruber, Jacques Demierre, Barre Phillips - Wing Vane.wav
Peak level 99.8 %
Extraction speed 2.0 X
Range quality 100.0 %
Test CRC FA8607DE
Copy CRC FA8607DE
Copy OK
No errors occurred
AccurateRip summary
Track 1 not present in database
Track 2 not present in database
Track 3 not present in database
Track 4 not present in database
Track 5 not present in database
Track 6 not present in database
None of the tracks are present in the AccurateRip database
End of status report
==== Log checksum 52E1FECCC0348776E5215ACE112F6ADD20ECA3F8EB14AC54FA6B5E7A4B8620DF ====
 
Содержание индексной карты (.CUE)
REM GENRE Avantgarde
REM DATE 2001
REM DISCID 450EF006
REM COMMENT "ExactAudioCopy v1.0b2"
PERFORMER "Urs Leimgruber, Jacques Demierre, Barre Phillips"
TITLE "Wing Vane"
FILE "Urs Leimgruber, Jacques Demierre, Barre Phillips - Wing Vane.flac" WAVE
TRACK 01 AUDIO
TITLE "Wing Vane"
PERFORMER "Urs Leimgruber, Jacques Demierre, Barre Phillips"
ISRC 000000000000
FLAGS DCP
INDEX 00 00:00:00
INDEX 01 00:00:20
TRACK 02 AUDIO
TITLE "Karypso"
PERFORMER "Urs Leimgruber, Jacques Demierre, Barre Phillips"
ISRC 000000000000
FLAGS DCP
INDEX 01 18:52:23
TRACK 03 AUDIO
TITLE "Distance"
PERFORMER "Urs Leimgruber, Jacques Demierre, Barre Phillips"
ISRC 000000000000
FLAGS DCP
INDEX 01 28:31:43
TRACK 04 AUDIO
TITLE "Time Was"
PERFORMER "Urs Leimgruber, Jacques Demierre, Barre Phillips"
ISRC 000000000000
FLAGS DCP
INDEX 01 38:43:05
TRACK 05 AUDIO
TITLE "Forwaard"
PERFORMER "Urs Leimgruber, Jacques Demierre, Barre Phillips"
ISRC 000000000000
FLAGS DCP
INDEX 01 43:07:28
TRACK 06 AUDIO
TITLE "Organically Yours"
PERFORMER "Urs Leimgruber, Jacques Demierre, Barre Phillips"
ISRC 000000000000
FLAGS DCP
INDEX 01 50:23:03
Доп. информация: Recorded live at Studio 2, Radio DRS (Zurich) on January 8-9, 2001.
 
Состав
Double Bass – Barre Phillips
Piano – Jacques Demierre
Tenor Saxophone, Soprano Saxophone – Urs Leimgruber
По всем вопросам пишите личное сообщение пользователю M0p94ok.
17:49
162
Нет комментариев. Ваш будет первым!