Вы используете незарегистрированную версию компонента "Вкладки"!

Поиск

(Free Jazz, Post-Bop, Free Bop) [CD] Boxes Of Water (Harris Eisenstadt, Noah Phillips, Aaron Kohen, Cory Wright) - Boxes Of Water - 2003, FLAC (tracks+.cue), lossless

(Free Jazz, Post-Bop, Free Bop) [CD] Boxes Of Water (Harris Eisenstadt, Noah Phillips, Aaron Kohen, Cory Wright) - Boxes Of Water - 2003, FLAC (tracks+.cue), lossless
Треклист:
Boxes Of Water / Boxes Of Water
Жанр: Free Jazz, Post-Bop, Free Bop
Носитель: CD
Страна-производитель диска: US
Год издания: 2003
Издатель (лейбл): Evander Music
Номер по каталогу: EM 017
Страна: US
Аудиокодек: FLAC (*.flac)
Тип рипа: tracks+.cue
Битрейт аудио: lossless
Продолжительность: 41:04
Источник (релизер): свой фирменный диск
Наличие сканов в содержимом раздачи:
Треклист:
1. Non Violence 4:49
2. Flighty 0:59
3. Frompy Fromperson 4:08
4. The Nature Of T.O.E. 4:48
5. Mother's Day 4:42
6. 14 Ways For Gerry Hemingway 3:54
7. Gooze 4:55
8. The Hawks Of Judah Should Have Their Wings Clipped 6:28
9. The Enemies Of My Enemies Are Waste Producers Like Me 6:17
 
Лог создания рипа
Exact Audio Copy V1.0 beta 3 from 29. August 2011
EAC extraction logfile from 15. March 2014, 23:22
Boxes Of Water / Boxes Of Water
Used drive : PIONEER DVD-RW DVR-115D Adapter: 0 ID: 0
Read mode : Secure
Utilize accurate stream : Yes
Defeat audio cache : Yes
Make use of C2 pointers : No
Read offset correction : 48
Overread into Lead-In and Lead-Out : No
Fill up missing offset samples with silence : Yes
Delete leading and trailing silent blocks : No
Null samples used in CRC calculations : Yes
Used interface : Installed external ASPI interface
Gap handling : Appended to previous track
Used output format : User Defined Encoder
Selected bitrate : 896 kBit/s
Quality : High
Add ID3 tag : No
Command line compressor : C:\Program Files\Exact Audio Copy\FLAC\FLAC.EXE
Additional command line options : -6 -V -T "ARTIST=%artist%" -T "TITLE=%title%" -T "ALBUM=%albumtitle%" -T "DATE=%year%" -T "TRACKNUMBER=%tracknr%" -T "GENRE=%genre%" -T "COMMENT=%comment%" -T "BAND=%albuminterpret%" -T "COMPOSER=%composer%" %haslyrics%--tag-from-file=LYRICS="%lyricsfile%"%haslyrics% -T "DISCNUMBER=%cdnumber%" -T "TOTALDISCS=%totalcds%" -T "TOTALTRACKS=%numtracks%" %hascover%--picture="%coverfile%"%hascover% %source% -o %dest%
TOC of the extracted CD
Track | Start | Length | Start sector | End sector
---------------------------------------------------------
1 | 0:00.00 | 4:49.23 | 0 | 21697
2 | 4:49.23 | 0:59.09 | 21698 | 26131
3 | 5:48.32 | 4:08.62 | 26132 | 44793
4 | 9:57.19 | 4:48.00 | 44794 | 66393
5 | 14:45.19 | 4:41.36 | 66394 | 87504
6 | 19:26.55 | 3:55.21 | 87505 | 105150
7 | 23:22.01 | 4:57.15 | 105151 | 127440
8 | 28:19.16 | 6:28.57 | 127441 | 156597
9 | 34:47.73 | 6:16.74 | 156598 | 184871
Track 1
Filename D:\zzz\01 - Non Violence.wav
Pre-gap length 0:00:02.00
Peak level 96.6 %
Extraction speed 4.6 X
Track quality 100.0 %
Test CRC 7E4A5601
Copy CRC 7E4A5601
Accurately ripped (confidence 1) [98DC4C4D] (AR v2)
Copy OK
Track 2
Filename D:\zzz\02 - Flighty.wav
Peak level 88.4 %
Extraction speed 2.5 X
Track quality 99.8 %
Test CRC 45625BDA
Copy CRC 45625BDA
Accurately ripped (confidence 1) [27D9C1E3] (AR v2)
Copy OK
Track 3
Filename D:\zzz\03 - Frompy Fromperson.wav
Peak level 96.6 %
Extraction speed 5.1 X
Track quality 100.0 %
Test CRC E4BE37F6
Copy CRC E4BE37F6
Accurately ripped (confidence 1) [35932958] (AR v2)
Copy OK
Track 4
Filename D:\zzz\04 - The Nature Of T.O.E..wav
Pre-gap length 0:00:01.00
Peak level 96.6 %
Extraction speed 5.6 X
Track quality 100.0 %
Test CRC 29193B9F
Copy CRC 29193B9F
Accurately ripped (confidence 1) [CF58F594] (AR v2)
Copy OK
Track 5
Filename D:\zzz\05 - Mother's Day.wav
Peak level 96.6 %
Extraction speed 6.0 X
Track quality 100.0 %
Test CRC 2E2E5ADD
Copy CRC 2E2E5ADD
Accurately ripped (confidence 1) [7995EDCF] (AR v2)
Copy OK
Track 6
Filename D:\zzz\06 - 14 Ways For Gerry Hemingway.wav
Peak level 96.6 %
Extraction speed 6.2 X
Track quality 100.0 %
Test CRC FA0B4A5A
Copy CRC FA0B4A5A
Accurately ripped (confidence 1) [2CD606A1] (AR v2)
Copy OK
Track 7
Filename D:\zzz\07 - Gooze.wav
Pre-gap length 0:00:01.00
Peak level 96.6 %
Extraction speed 6.7 X
Track quality 100.0 %
Test CRC 1B7A0B8B
Copy CRC 1B7A0B8B
Accurately ripped (confidence 1) [6A78F034] (AR v2)
Copy OK
Track 8
Filename D:\zzz\08 - The Hawks Of Judah Should Have Their Wings Clipped.wav
Pre-gap length 0:00:02.00
Peak level 96.6 %
Extraction speed 6.7 X
Track quality 99.9 %
Test CRC CA1F89C8
Copy CRC 428AC66C
Accurately ripped (confidence 1) [D3E79FA2] (AR v2)
Copy OK
Track 9
Filename D:\zzz\09 - The Enemies Of My Enemies Are Waste Producers Like Me.wav
Pre-gap length 0:00:01.00
Peak level 96.6 %
Extraction speed 7.7 X
Track quality 100.0 %
Test CRC BADAB86B
Copy CRC BADAB86B
Accurately ripped (confidence 1) [594F897E] (AR v2)
Copy OK
All tracks accurately ripped
No errors occurred
End of status report
==== Log checksum D2C92A0697A2402F4B154C0B3CA2FB0C0E4E5A3C7C793DFEEA365D7C93A124C9 ====
 
Содержание индексной карты (.CUE)
REM GENRE "Free Jazz"
REM DATE 2003
REM DISCID 7909A009
REM COMMENT "ExactAudioCopy v1.0b3"
PERFORMER "Boxes Of Water"
TITLE "Boxes Of Water"
FILE "01 - Non Violence.wav" WAVE
TRACK 01 AUDIO
TITLE "Non Violence"
PERFORMER "Boxes Of Water"
INDEX 01 00:00:00
FILE "02 - Flighty.wav" WAVE
TRACK 02 AUDIO
TITLE "Flighty"
PERFORMER "Boxes Of Water"
INDEX 01 00:00:00
FILE "03 - Frompy Fromperson.wav" WAVE
TRACK 03 AUDIO
TITLE "Frompy Fromperson"
PERFORMER "Boxes Of Water"
INDEX 01 00:00:00
TRACK 04 AUDIO
TITLE "The Nature Of T.O.E."
PERFORMER "Boxes Of Water"
INDEX 00 04:07:62
FILE "04 - The Nature Of T.O.E..wav" WAVE
INDEX 01 00:00:00
FILE "05 - Mother's Day.wav" WAVE
TRACK 05 AUDIO
TITLE "Mother's Day"
PERFORMER "Boxes Of Water"
INDEX 01 00:00:00
FILE "06 - 14 Ways For Gerry Hemingway.wav" WAVE
TRACK 06 AUDIO
TITLE "14 Ways For Gerry Hemingway"
PERFORMER "Boxes Of Water"
INDEX 01 00:00:00
TRACK 07 AUDIO
TITLE "Gooze"
PERFORMER "Boxes Of Water"
INDEX 00 03:54:21
FILE "07 - Gooze.wav" WAVE
INDEX 01 00:00:00
TRACK 08 AUDIO
TITLE "The Hawks Of Judah Should Have Their Wings Clipped"
PERFORMER "Boxes Of Water"
INDEX 00 04:55:15
FILE "08 - The Hawks Of Judah Should Have Their Wings Clipped.wav" WAVE
INDEX 01 00:00:00
TRACK 09 AUDIO
TITLE "The Enemies Of My Enemies Are Waste Producers Like Me"
PERFORMER "Boxes Of Water"
INDEX 00 06:27:57
FILE "09 - The Enemies Of My Enemies Are Waste Producers Like Me.wav" WAVE
INDEX 01 00:00:00
 
Лог проверки качества
d:\>d:\aucdtect -d/-m0 d:\zzz\*.wav
auCDtect: CD records authenticity detector, version 0.8.2
Copyright (c) 2004 Oleg Berngardt. All rights reserved.
Copyright (c) 2004 Alexander Djourik. All rights reserved.
------------------------------------------------------------
Processing file: [01. Non Violence.wav]
------------------------------------------------------------
This track looks like CDDA with probability 100%
------------------------------------------------------------
Processing file: [02. Flighty.wav]
------------------------------------------------------------
This track looks like CDDA with probability 100%
------------------------------------------------------------
Processing file: [03. Frompy Fromperson.wav]
------------------------------------------------------------
This track looks like CDDA with probability 100%
------------------------------------------------------------
Processing file: [04. The Nature Of T.O.E..wav]
------------------------------------------------------------
This track looks like CDDA with probability 100%
------------------------------------------------------------
Processing file: [05. Mother's Day.wav]
------------------------------------------------------------
This track looks like CDDA with probability 100%
------------------------------------------------------------
Processing file: [06. 14 Ways For Gerry Hemingway.wav]
------------------------------------------------------------
This track looks like CDDA with probability 100%
------------------------------------------------------------
Processing file: [07. Gooze.wav]
------------------------------------------------------------
This track looks like CDDA with probability 100%
------------------------------------------------------------
Processing file: [08. The Hawks Of Judah Should Have Their Wings Clipped.wav]
------------------------------------------------------------
This track looks like CDDA with probability 100%
------------------------------------------------------------
Processing file: [09. The Enemies Of My Enemies Are Waste Producers Like Me.wav]
------------------------------------------------------------
This track looks like CDDA with probability 100%
------------------------------------------------------------
Final Conclusion:
------------------------------------------------------------
These tracks looks like CDDA with probability 100%
Доп. информация:
 
Album Info & AAJ Review
(Eisenstadt) - 1,6
(Kohen) - 2,3
(Phillips) - 4,8,9
(Wright) - 5,7
Recorded 10.6.02, Newzone Studio, Los Angeles
Wayne Peet: engineer
Kio Griffith: CD package art
Photo by: Carolyn Beebe
Boxes of Water brings together four of LA’s hardest working improvisers. Harris Eisenstadt, Cory Wright, Aaron Kohen, and Noah Phillips participate in countless aggregations throughout the area and beyond: KOLA, the Industrial Jazz Group, the Celebration Trio, Wadada Leo Smith’s Carbon System, Anthony Braxton’s Tricentric Orchestra, Adam Rudolph’s Go:Organic Orchestra, and collaborations too numerous to list.
While various live performances have proven them to be some of the most fearless free players around, their self-titled first release as Boxes of Water shows the quartet also adept at creating and working within tightly arranged complex structures. Eisenstadt’s “Non Violence” opens with Kohen’s bass line, Eisenstadt's cymbal work, and Phillips and Wright playing single-note unisons. When on the frontline with Wright, the guitarist frequently takes on a role usually assigned to another horn, then moves easily into chording. Noah launches the first solo, a concise tangled spiky bramble that quickly leads back to the arrangement. Kohen takes a brief stab before resuming his pivotal bass line. Kohen’s brief, eccentric “Flighty” segues into his “Frompy Fromperson,” where Wright switches from alto to soprano. A brisk bass solo, a few measures of conga rhythm, and Wright plays an effortless solo. Phillips works some octaves before punching a little crunch into his tone over Eisenstadt and Kohen’s cooking.
Phillips’ “The Nature of T.O.E.” unleashes multiple rhythms before Noah creates a figure for Wright (on tenor) and Kohen to play through in unison. The bassist's deep bowing makes way for Wright’s brief variations before he rejoins Aaron. Harris’ “14 Ways for Gerry Hemingway” finds Wright on baritone, getting maximum grit from the big horn, and Phillips switching tempos as the measure demands. With Kohen’s mysterioso bass the track could be an outtake from Joe Baiza’s Universal Congress Of. Wright’s “Gooze” sets a herky-jerky riff in motion, and like his earlier “Mother’s Day,” the group steps off into loose space before reconvening.
Phillips' “The Hawks of Judah Should Have Their Wings Clipped” starts introspective with Wright on soprano, hitting a lockstep riff, then returning to a subdued atmospheric mode. Phillips briefly samples some effects during Wright’s variations, occasionally insinuating the original riff. His “The Enemies of My Enemies Are Waste Producers Like Me” keeps Wright on a high flying soprano over a much faster tempo. After the time relaxes, Eisenstadt tickles cymbals and shakers while Kohen keeps things grounded. Wright and Phillips then ride the arrangement out.
With the band taking it on the road soon, Boxes of Water will be leaking music all over America.
 
Состав
Harris Eisenstadt: drums
Noah Phillips: guitar
Aaron Kohen: bass
Cory Wright: tenor, soprano, baritone saxophones, clarinet
По всем вопросам пишите личное сообщение пользователю M0p94ok.
01:03
168
Нет комментариев. Ваш будет первым!