Поиск

(Avant-Garde Jazz, Free Improvisation) [CD] Ivar Grydeland, Tonny Kluften, Paul Lovens - These Six - 2003, FLAC (tracks+.cue), lossless

(Avant-Garde Jazz, Free Improvisation) [CD] Ivar Grydeland, Tonny Kluften, Paul Lovens - These Six - 2003, FLAC (tracks+.cue), lossless
Треклист:
Ivar Grydeland, Tonny Kluften, Paul Lovens / These Six
Жанр: Avant-Garde Jazz, Free Improvisation
Носитель: CD
Страна-производитель диска: Norway
Год издания: 2003
Издатель (лейбл): Sofa Music
Номер по каталогу: SOFA 512
Страна: Norway
Аудиокодек: FLAC (*.flac)
Тип рипа: tracks+.cue
Битрейт аудио: lossless
Продолжительность: 50:11
Источник (релизер): свой фирменный диск
Наличие сканов в содержимом раздачи:
Треклист:
1. 01 8:48
2. 02 10:54
3. 03 14:31
4. 04 4:10
5. 05 8:29
6. 06 3:17
 
Лог создания рипа
Exact Audio Copy V1.0 beta 3 from 29. August 2011
EAC extraction logfile from 16. March 2014, 22:55
Ivar Grydeland, Tonny Kluften, Paul Lovens / These Six
Used drive : PIONEER DVD-RW DVR-115D Adapter: 0 ID: 0
Read mode : Secure
Utilize accurate stream : Yes
Defeat audio cache : Yes
Make use of C2 pointers : No
Read offset correction : 48
Overread into Lead-In and Lead-Out : No
Fill up missing offset samples with silence : Yes
Delete leading and trailing silent blocks : No
Null samples used in CRC calculations : Yes
Used interface : Installed external ASPI interface
Gap handling : Appended to previous track
Used output format : User Defined Encoder
Selected bitrate : 896 kBit/s
Quality : High
Add ID3 tag : No
Command line compressor : C:\Program Files\Exact Audio Copy\FLAC\FLAC.EXE
Additional command line options : -6 -V -T "ARTIST=%artist%" -T "TITLE=%title%" -T "ALBUM=%albumtitle%" -T "DATE=%year%" -T "TRACKNUMBER=%tracknr%" -T "GENRE=%genre%" -T "COMMENT=%comment%" -T "BAND=%albuminterpret%" -T "COMPOSER=%composer%" %haslyrics%--tag-from-file=LYRICS="%lyricsfile%"%haslyrics% -T "DISCNUMBER=%cdnumber%" -T "TOTALDISCS=%totalcds%" -T "TOTALTRACKS=%numtracks%" %hascover%--picture="%coverfile%"%hascover% %source% -o %dest%
TOC of the extracted CD
Track | Start | Length | Start sector | End sector
---------------------------------------------------------
1 | 0:00.00 | 8:48.67 | 0 | 39666
2 | 8:48.67 | 10:54.45 | 39667 | 88761
3 | 19:43.37 | 14:31.22 | 88762 | 154108
4 | 34:14.59 | 4:10.02 | 154109 | 172860
5 | 38:24.61 | 8:29.53 | 172861 | 211088
6 | 46:54.39 | 3:17.06 | 211089 | 225869
Track 1
Filename D:\zzz\01 - 01.wav
Pre-gap length 0:00:02.00
Peak level 97.7 %
Extraction speed 4.6 X
Track quality 99.9 %
Test CRC 8E5BEB18
Copy CRC 8E5BEB18
Accurately ripped (confidence 1) [B02265FA] (AR v2)
Copy OK
Track 2
Filename D:\zzz\02 - 02.wav
Pre-gap length 0:00:04.54
Peak level 97.7 %
Extraction speed 6.0 X
Track quality 100.0 %
Test CRC 1D82EC04
Copy CRC 1D82EC04
Accurately ripped (confidence 1) [7FD4A4AD] (AR v2)
Copy OK
Track 3
Filename D:\zzz\03 - 03.wav
Pre-gap length 0:00:03.30
Peak level 97.7 %
Extraction speed 7.1 X
Track quality 100.0 %
Test CRC 6D66C99E
Copy CRC 6D66C99E
Accurately ripped (confidence 1) [85E8545A] (AR v2)
Copy OK
Track 4
Filename D:\zzz\04 - 04.wav
Pre-gap length 0:00:05.05
Peak level 71.2 %
Extraction speed 7.0 X
Track quality 100.0 %
Test CRC 24CFF0AC
Copy CRC 24CFF0AC
Accurately ripped (confidence 1) [9282638F] (AR v2)
Copy OK
Track 5
Filename D:\zzz\05 - 05.wav
Pre-gap length 0:00:04.60
Peak level 92.2 %
Extraction speed 7.9 X
Track quality 100.0 %
Test CRC 2FE07E22
Copy CRC 2FE07E22
Accurately ripped (confidence 1) [323D03A2] (AR v2)
Copy OK
Track 6
Filename D:\zzz\06 - 06.wav
Pre-gap length 0:00:06.11
Peak level 21.0 %
Extraction speed 7.4 X
Track quality 100.0 %
Test CRC 69E6F851
Copy CRC 69E6F851
Accurately ripped (confidence 1) [1C746043] (AR v2)
Copy OK
All tracks accurately ripped
No errors occurred
End of status report
==== Log checksum 5AACF62EAB7EB4B44872735A37C6B5CF0B11A538F0B095CEA692606F4BEA491E ====
 
Содержание индексной карты (.CUE)
REM GENRE "Free Improvisation"
REM DATE 2003
REM DISCID 420BC306
REM COMMENT "ExactAudioCopy v1.0b3"
PERFORMER "Ivar Grydeland, Tonny Kluften, Paul Lovens"
TITLE "These Six"
FILE "01 - 01.wav" WAVE
TRACK 01 AUDIO
TITLE "01"
PERFORMER "Ivar Grydeland, Tonny Kluften, Paul Lovens"
INDEX 01 00:00:00
TRACK 02 AUDIO
TITLE "02"
PERFORMER "Ivar Grydeland, Tonny Kluften, Paul Lovens"
INDEX 00 08:44:13
FILE "02 - 02.wav" WAVE
INDEX 01 00:00:00
TRACK 03 AUDIO
TITLE "03"
PERFORMER "Ivar Grydeland, Tonny Kluften, Paul Lovens"
INDEX 00 10:51:15
FILE "03 - 03.wav" WAVE
INDEX 01 00:00:00
TRACK 04 AUDIO
TITLE "04"
PERFORMER "Ivar Grydeland, Tonny Kluften, Paul Lovens"
INDEX 00 14:26:17
FILE "04 - 04.wav" WAVE
INDEX 01 00:00:00
TRACK 05 AUDIO
TITLE "05"
PERFORMER "Ivar Grydeland, Tonny Kluften, Paul Lovens"
INDEX 00 04:05:17
FILE "05 - 05.wav" WAVE
INDEX 01 00:00:00
TRACK 06 AUDIO
TITLE "06"
PERFORMER "Ivar Grydeland, Tonny Kluften, Paul Lovens"
INDEX 00 08:23:42
FILE "06 - 06.wav" WAVE
INDEX 01 00:00:00
 
Лог проверки качества
d:\>d:\aucdtect -d/-m0 d:\zzz\*.wav
auCDtect: CD records authenticity detector, version 0.8.2
Copyright (c) 2004 Oleg Berngardt. All rights reserved.
Copyright (c) 2004 Alexander Djourik. All rights reserved.
------------------------------------------------------------
Processing file: [01. 01.wav]
------------------------------------------------------------
This track looks like CDDA with probability 100%
------------------------------------------------------------
Processing file: [02. 02.wav]
------------------------------------------------------------
This track looks like CDDA with probability 100%
------------------------------------------------------------
Processing file: [03. 03.wav]
------------------------------------------------------------
This track looks like CDDA with probability 100%
------------------------------------------------------------
Processing file: [04. 04.wav]
------------------------------------------------------------
This track looks like CDDA with probability 100%
------------------------------------------------------------
Processing file: [05. 05.wav]
------------------------------------------------------------
This track looks like CDDA with probability 100%
------------------------------------------------------------
Processing file: [06. 06.wav]
------------------------------------------------------------
This track looks like CDDA with probability 100%
------------------------------------------------------------
Final Conclusion:
------------------------------------------------------------
These tracks looks like CDDA with probability 100%
Доп. информация:
 
Album Info & AMG Review
Music by Grydeland, Kluften and Lovens
Produced by the trio
Recorded June 21, 2003 by Audun Strype
Mixed and mastered by Audun Strype
Cover design by Stoffer Ganes
Funded by and thanks to: Fond for Utovende Kunstnere & Fond for Lyd og Bilde
Guitarist Ivar Grydeland and bassist Tonny Kluften are two-thirds of the core trio behind the improv collective No Spaghetti Edition. Here, drummer Paul Lovens seems to be subbing for the third third, Ingar Zach. They form a suitable trio on paper, but reality is somewhat different. Lovens' legendary jerky, fragmented playing finds resonance in Grydeland's Derek Bailey-derived approach. And when the guitarist picks up a banjo for the second of These Six's untitled pieces, one briefly thinks of Lovens' longstanding musical partnership with Eugene Chadbourne, before the trio moves into a very different region. This is a laid-back session, almost comfortable in a free improv context: no harsh or brutal onslaughts, no extremely arid sound research. The music sounds casual, even a bit too casual starting with the fourth piece (the fifth definitely lacks focus, despite some beautiful playing from Grydeland). Kluften's bass gives a slightly jazz tone to the session, especially in the first and fourth pieces, but Lovens' playing -- weighting much more toward texture than rhythm, cymbal and junk metal than drum -- is anything but jazz, and is a frequent aural marvel. After a couple of strong improvisations, especially the second one, which ranks among the longer tracks at 11 minutes, the album loses some of its momentum, as if the players had already fished out all their ideas and couldn't decide what to do next -- like a conversation with an acquaintance running cold and embarrassing after only a topic or two. A conscious move toward quieter, more detached music in the second half, or a meeting that didn't go quite right? You decide.
 
Состав
Ivar Grydeland: guitar & banjo
Tonny Kluften: double bass
Paul Lovens: selected and unselected drums and cymbals
По всем вопросам пишите личное сообщение пользователю M0p94ok.
01:03
145
Нет комментариев. Ваш будет первым!