Поиск

(Avant-Garde Jazz, Modern Composition, Between The Lines) [CD] Icebreaker - Extraction - 2001, FLAC (tracks+.cue), lossless

(Avant-Garde Jazz, Modern Composition, Between The Lines) [CD] Icebreaker - Extraction - 2001, FLAC (tracks+.cue), lossless
Треклист:
Icebreaker / Extraction
Жанр: Avant-Garde Jazz, Modern Composition, Between The Lines
Носитель: CD
Страна-производитель диска: Germany
Год издания: 2001
Издатель (лейбл): Between The Lines
Номер по каталогу: btl 018 / EFA 10188-2
Страна: UK
Аудиокодек: FLAC (*.flac)
Тип рипа: tracks+.cue
Битрейт аудио: lossless
Продолжительность: 51:46
Источник (релизер): свой фирменный диск
Наличие сканов в содержимом раздачи:
Треклист:
Damian le Gassick: Mad Legs In A Sack 15:59
1. 1st Movement 3:37
2. 2nd Movement 5:50
3. 3rd Movement (Jazz Piano) 6:32
Gordon McPherson: The Baby Bear's Bed 26:40
4. untitled 3:54
5. untitled 1:27
6. untitled 4:02
7. untitled 4:28
8. untitled 1:53
9. untitled 3:14
10. untitled 4:16
11. untitled 3:26
17. Mel: Goldylox ("Secret Hidden Bonus Track Mix") Remix Of The Baby Bear's Bed 8:33
 
Лог создания рипа
Exact Audio Copy V1.0 beta 3 from 29. August 2011
EAC extraction logfile from 15. March 2014, 13:53
Icebreaker / Extraction
Used drive : PIONEER DVD-RW DVR-115D Adapter: 0 ID: 0
Read mode : Secure
Utilize accurate stream : Yes
Defeat audio cache : Yes
Make use of C2 pointers : No
Read offset correction : 48
Overread into Lead-In and Lead-Out : No
Fill up missing offset samples with silence : Yes
Delete leading and trailing silent blocks : No
Null samples used in CRC calculations : Yes
Used interface : Installed external ASPI interface
Gap handling : Appended to previous track
Used output format : User Defined Encoder
Selected bitrate : 896 kBit/s
Quality : High
Add ID3 tag : No
Command line compressor : C:\Program Files\Exact Audio Copy\FLAC\FLAC.EXE
Additional command line options : -6 -V -T "ARTIST=%artist%" -T "TITLE=%title%" -T "ALBUM=%albumtitle%" -T "DATE=%year%" -T "TRACKNUMBER=%tracknr%" -T "GENRE=%genre%" -T "COMMENT=%comment%" -T "BAND=%albuminterpret%" -T "COMPOSER=%composer%" %haslyrics%--tag-from-file=LYRICS="%lyricsfile%"%haslyrics% -T "DISCNUMBER=%cdnumber%" -T "TOTALDISCS=%totalcds%" -T "TOTALTRACKS=%numtracks%" %hascover%--picture="%coverfile%"%hascover% %source% -o %dest%
TOC of the extracted CD
Track | Start | Length | Start sector | End sector
---------------------------------------------------------
1 | 0:00.00 | 3:36.45 | 0 | 16244
2 | 3:36.45 | 5:50.35 | 16245 | 42529
3 | 9:27.05 | 6:32.13 | 42530 | 71942
4 | 15:59.18 | 3:54.29 | 71943 | 89521
5 | 19:53.47 | 1:31.30 | 89522 | 96376
6 | 21:25.02 | 3:57.36 | 96377 | 114187
7 | 25:22.38 | 4:28.04 | 114188 | 134291
8 | 29:50.42 | 1:53.02 | 134292 | 142768
9 | 31:43.44 | 3:13.74 | 142769 | 157317
10 | 34:57.43 | 4:16.30 | 157318 | 176547
11 | 39:13.73 | 3:30.17 | 176548 | 192314
12 | 42:44.15 | 0:05.59 | 192315 | 192748
13 | 42:49.74 | 0:06.01 | 192749 | 193199
14 | 42:56.00 | 0:05.21 | 193200 | 193595
15 | 43:01.21 | 0:05.31 | 193596 | 194001
16 | 43:06.52 | 0:05.10 | 194002 | 194386
17 | 43:11.62 | 8:35.08 | 194387 | 233019
Track 1
Filename D:\zzz\01 - 01 Damian le Gassick- Mad Legs in a Sack - 1st Movement.wav
Pre-gap length 0:00:02.00
Peak level 74.8 %
Extraction speed 2.5 X
Track quality 100.0 %
Test CRC F21E9647
Copy CRC F21E9647
Accurately ripped (confidence 2) [05076E57] (AR v1)
Copy OK
Track 2
Filename D:\zzz\02 - 02 Damian le Gassick- Mad Legs in a Sack - 2nd Movement.wav
Peak level 83.5 %
Extraction speed 3.0 X
Track quality 100.0 %
Test CRC CBEFDDCB
Copy CRC CBEFDDCB
Accurately ripped (confidence 2) [82B0599A] (AR v1)
Copy OK
Track 3
Filename D:\zzz\03 - 03 Damian le Gassick- Mad Legs in a Sack - 3rd Movement.wav
Peak level 99.1 %
Extraction speed 3.4 X
Track quality 100.0 %
Test CRC FFF4FC40
Copy CRC FFF4FC40
Accurately ripped (confidence 2) [D3D12258] (AR v1)
Copy OK
Track 4
Filename D:\zzz\04 - 04 Gordon McPherson- The Baby Bear's Bed - 1.wav
Peak level 64.0 %
Extraction speed 3.0 X
Track quality 99.9 %
Test CRC 63790F7E
Copy CRC 63790F7E
Accurately ripped (confidence 2) [D7BC9322] (AR v1)
Copy OK
Track 5
Filename D:\zzz\05 - 05 Gordon McPherson- The Baby Bear's Bed - 2.wav
Peak level 100.0 %
Extraction speed 2.9 X
Track quality 100.0 %
Test CRC 1DAC350E
Copy CRC 1DAC350E
Accurately ripped (confidence 2) [DFAA9675] (AR v1)
Copy OK
Track 6
Filename D:\zzz\06 - 06 Gordon McPherson- The Baby Bear's Bed - 3.wav
Peak level 88.1 %
Extraction speed 3.7 X
Track quality 100.0 %
Test CRC 6D75682F
Copy CRC 6D75682F
Accurately ripped (confidence 2) [AC455020] (AR v1)
Copy OK
Track 7
Filename D:\zzz\07 - 07 Gordon McPherson- The Baby Bear's Bed - 4.wav
Peak level 95.9 %
Extraction speed 3.9 X
Track quality 100.0 %
Test CRC 8DECB323
Copy CRC 8DECB323
Accurately ripped (confidence 2) [AC8B0F73] (AR v1)
Copy OK
Track 8
Filename D:\zzz\08 - 08 Gordon McPherson- The Baby Bear's Bed - 5.wav
Peak level 95.3 %
Extraction speed 3.5 X
Track quality 100.0 %
Test CRC A7B15C91
Copy CRC A7B15C91
Accurately ripped (confidence 2) [D4B68F4E] (AR v1)
Copy OK
Track 9
Filename D:\zzz\09 - 09 Gordon McPherson- The Baby Bear's Bed - 6.wav
Peak level 100.0 %
Extraction speed 4.0 X
Track quality 100.0 %
Test CRC 15C3EA10
Copy CRC 15C3EA10
Accurately ripped (confidence 2) [09D7E89C] (AR v1)
Copy OK
Track 10
Filename D:\zzz\10 - 10 Gordon McPherson- The Baby Bear's Bed - 7.wav
Peak level 99.5 %
Extraction speed 4.2 X
Track quality 100.0 %
Test CRC 3B2312CE
Copy CRC 3B2312CE
Accurately ripped (confidence 2) [C45FED83] (AR v1)
Copy OK
Track 11
Filename D:\zzz\11 - 11 Gordon McPherson- The Baby Bear's Bed - 8.wav
Peak level 99.4 %
Extraction speed 4.0 X
Track quality 100.0 %
Test CRC B6EA135A
Copy CRC B6EA135A
Accurately ripped (confidence 2) [79E51611] (AR v1)
Copy OK
Track 12
Filename D:\zzz\12 - 12 Gordon McPherson- The Baby Bear's Bed - 9.wav
Peak level 0.0 %
Extraction speed 0.6 X
Track quality 100.0 %
Test CRC 59994E80
Copy CRC 59994E80
Track not present in AccurateRip database
Copy OK
Track 13
Filename D:\zzz\13 - 13 Gordon McPherson- The Baby Bear's Bed - 10.wav
Peak level 0.0 %
Extraction speed 0.6 X
Track quality 100.0 %
Test CRC FF3D7B87
Copy CRC FF3D7B87
Track not present in AccurateRip database
Copy OK
Track 14
Filename D:\zzz\14 - 14 Gordon McPherson- The Baby Bear's Bed - 11.wav
Peak level 0.0 %
Extraction speed 0.3 X
Track quality 97.9 %
Test CRC 8C5A6C71
Copy CRC 8C5A6C71
Track not present in AccurateRip database
Copy OK
Track 15
Filename D:\zzz\15 - 15 Gordon McPherson- The Baby Bear's Bed - 12.wav
Peak level 0.0 %
Extraction speed 0.5 X
Track quality 100.0 %
Test CRC 86B3D213
Copy CRC 86B3D213
Track not present in AccurateRip database
Copy OK
Track 16
Filename D:\zzz\16 - 16 Gordon McPherson- The Baby Bear's Bed - 13.wav
Peak level 0.0 %
Extraction speed 0.5 X
Track quality 100.0 %
Test CRC 09664752
Copy CRC 09664752
Track not present in AccurateRip database
Copy OK
Track 17
Filename D:\zzz\17 - 17 Mel- Goldylox (Remix of The Baby Bear's Bed).wav
Peak level 99.2 %
Extraction speed 4.9 X
Track quality 100.0 %
Test CRC A44403C2
Copy CRC A44403C2
Accurately ripped (confidence 1) [CE48C0CC] (AR v1)
Copy OK
12 track(s) accurately ripped
5 track(s) not present in the AccurateRip database
Some tracks could not be verified as accurate
No errors occurred
End of status report
==== Log checksum 38436AABEEB3FD5B8F42187AEDED7A6688C1F6D4FDEC7138AA364EC208B43435 ====
 
Содержание индексной карты (.CUE)
REM GENRE Avantgarde
REM DATE 2001
REM DISCID 190C2211
REM COMMENT "ExactAudioCopy v1.0b3"
PERFORMER "Icebreaker"
TITLE "Extraction"
FILE "01 - 01 Damian le Gassick- Mad Legs in a Sack - 1st Movement.wav" WAVE
TRACK 01 AUDIO
TITLE "01 Damian le Gassick: Mad Legs in a Sack - 1st Movement"
PERFORMER "Icebreaker"
INDEX 01 00:00:00
FILE "02 - 02 Damian le Gassick- Mad Legs in a Sack - 2nd Movement.wav" WAVE
TRACK 02 AUDIO
TITLE "02 Damian le Gassick: Mad Legs in a Sack - 2nd Movement"
PERFORMER "Icebreaker"
INDEX 01 00:00:00
FILE "03 - 03 Damian le Gassick- Mad Legs in a Sack - 3rd Movement.wav" WAVE
TRACK 03 AUDIO
TITLE "03 Damian le Gassick: Mad Legs in a Sack - 3rd Movement"
PERFORMER "Icebreaker"
INDEX 01 00:00:00
FILE "04 - 04 Gordon McPherson- The Baby Bear's Bed - 1.wav" WAVE
TRACK 04 AUDIO
TITLE "04 Gordon McPherson: The Baby Bear's Bed - 1"
PERFORMER "Icebreaker"
INDEX 01 00:00:00
FILE "05 - 05 Gordon McPherson- The Baby Bear's Bed - 2.wav" WAVE
TRACK 05 AUDIO
TITLE "05 Gordon McPherson: The Baby Bear's Bed - 2"
PERFORMER "Icebreaker"
INDEX 01 00:00:00
FILE "06 - 06 Gordon McPherson- The Baby Bear's Bed - 3.wav" WAVE
TRACK 06 AUDIO
TITLE "06 Gordon McPherson: The Baby Bear's Bed - 3"
PERFORMER "Icebreaker"
INDEX 01 00:00:00
FILE "07 - 07 Gordon McPherson- The Baby Bear's Bed - 4.wav" WAVE
TRACK 07 AUDIO
TITLE "07 Gordon McPherson: The Baby Bear's Bed - 4"
PERFORMER "Icebreaker"
INDEX 01 00:00:00
FILE "08 - 08 Gordon McPherson- The Baby Bear's Bed - 5.wav" WAVE
TRACK 08 AUDIO
TITLE "08 Gordon McPherson: The Baby Bear's Bed - 5"
PERFORMER "Icebreaker"
INDEX 01 00:00:00
FILE "09 - 09 Gordon McPherson- The Baby Bear's Bed - 6.wav" WAVE
TRACK 09 AUDIO
TITLE "09 Gordon McPherson: The Baby Bear's Bed - 6"
PERFORMER "Icebreaker"
INDEX 01 00:00:00
FILE "10 - 10 Gordon McPherson- The Baby Bear's Bed - 7.wav" WAVE
TRACK 10 AUDIO
TITLE "10 Gordon McPherson: The Baby Bear's Bed - 7"
PERFORMER "Icebreaker"
INDEX 01 00:00:00
FILE "11 - 11 Gordon McPherson- The Baby Bear's Bed - 8.wav" WAVE
TRACK 11 AUDIO
TITLE "11 Gordon McPherson: The Baby Bear's Bed - 8"
PERFORMER "Icebreaker"
INDEX 01 00:00:00
FILE "12 - 12 Gordon McPherson- The Baby Bear's Bed - 9.wav" WAVE
TRACK 12 AUDIO
TITLE "12 Gordon McPherson: The Baby Bear's Bed - 9"
PERFORMER "Icebreaker"
INDEX 01 00:00:00
FILE "13 - 13 Gordon McPherson- The Baby Bear's Bed - 10.wav" WAVE
TRACK 13 AUDIO
TITLE "13 Gordon McPherson: The Baby Bear's Bed - 10"
PERFORMER "Icebreaker"
INDEX 01 00:00:00
FILE "14 - 14 Gordon McPherson- The Baby Bear's Bed - 11.wav" WAVE
TRACK 14 AUDIO
TITLE "14 Gordon McPherson: The Baby Bear's Bed - 11"
PERFORMER "Icebreaker"
INDEX 01 00:00:00
FILE "15 - 15 Gordon McPherson- The Baby Bear's Bed - 12.wav" WAVE
TRACK 15 AUDIO
TITLE "15 Gordon McPherson: The Baby Bear's Bed - 12"
PERFORMER "Icebreaker"
INDEX 01 00:00:00
FILE "16 - 16 Gordon McPherson- The Baby Bear's Bed - 13.wav" WAVE
TRACK 16 AUDIO
TITLE "16 Gordon McPherson: The Baby Bear's Bed - 13"
PERFORMER "Icebreaker"
INDEX 01 00:00:00
FILE "17 - 17 Mel- Goldylox (Remix of The Baby Bear's Bed).wav" WAVE
TRACK 17 AUDIO
TITLE "17 Mel: Goldylox (Remix of The Baby Bear's Bed)"
PERFORMER "Icebreaker"
INDEX 01 00:00:00
 
Лог проверки качества
d:\>d:\aucdtect -d/-m0 d:\zzz\*.wav
auCDtect: CD records authenticity detector, version 0.8.2
Copyright (c) 2004 Oleg Berngardt. All rights reserved.
Copyright (c) 2004 Alexander Djourik. All rights reserved.
------------------------------------------------------------
Processing file: [01. 01 Damian le Gassick- Mad Legs in a Sack - 1st Movement.wav]
------------------------------------------------------------
This track looks like MPEG with probability 80%
------------------------------------------------------------
Processing file: [02. 02 Damian le Gassick- Mad Legs in a Sack - 2nd Movement.wav]
------------------------------------------------------------
This track looks like CDDA with probability 100%
------------------------------------------------------------
Processing file: [03. 03 Damian le Gassick- Mad Legs in a Sack - 3rd Movement.wav]
------------------------------------------------------------
This track looks like MPEG with probability 91%
------------------------------------------------------------
Processing file: [04. 04 Gordon McPherson- The Baby Bear's Bed - 1.wav]
------------------------------------------------------------
This track looks like MPEG with probability 100%
------------------------------------------------------------
Processing file: [05. 05 Gordon McPherson- The Baby Bear's Bed - 2.wav]
------------------------------------------------------------
This track looks like MPEG with probability 100%
------------------------------------------------------------
Processing file: [06. 06 Gordon McPherson- The Baby Bear's Bed - 3.wav]
------------------------------------------------------------
This track looks like CDDA with probability 100%
------------------------------------------------------------
Processing file: [07. 07 Gordon McPherson- The Baby Bear's Bed - 4.wav]
------------------------------------------------------------
This track looks like CDDA with probability 100%
------------------------------------------------------------
Processing file: [08. 08 Gordon McPherson- The Baby Bear's Bed - 5.wav]
------------------------------------------------------------
This track looks like CDDA with probability 100%
------------------------------------------------------------
Processing file: [09. 09 Gordon McPherson- The Baby Bear's Bed - 6.wav]
------------------------------------------------------------
This track looks like CDDA with probability 100%
------------------------------------------------------------
Processing file: [10. 10 Gordon McPherson- The Baby Bear's Bed - 7.wav]
------------------------------------------------------------
This track looks like CDDA with probability 100%
------------------------------------------------------------
Processing file: [11. 11 Gordon McPherson- The Baby Bear's Bed - 8.wav]
------------------------------------------------------------
This track looks like CDDA with probability 100%
------------------------------------------------------------
Processing file: [12. 12 Gordon McPherson- The Baby Bear's Bed - 9.wav]
------------------------------------------------------------
This track looks like CDDA with probability 100%
------------------------------------------------------------
Processing file: [13. 13 Gordon McPherson- The Baby Bear's Bed - 10.wav]
------------------------------------------------------------
This track looks like CDDA with probability 100%
------------------------------------------------------------
Processing file: [14. 14 Gordon McPherson- The Baby Bear's Bed - 11.wav]
------------------------------------------------------------
This track looks like CDDA with probability 100%
------------------------------------------------------------
Processing file: [15. 15 Gordon McPherson- The Baby Bear's Bed - 12.wav]
------------------------------------------------------------
This track looks like CDDA with probability 100%
------------------------------------------------------------
Processing file: [16. 16 Gordon McPherson- The Baby Bear's Bed - 13.wav]
------------------------------------------------------------
This track looks like CDDA with probability 100%
------------------------------------------------------------
Processing file: [17. 17 Mel- Goldylox (Remix of The Baby Bear's Bed).wav]
------------------------------------------------------------
This track looks like CDDA with probability 100%
------------------------------------------------------------
Final Conclusion:
------------------------------------------------------------
Could not qualify the source of these tracks.
Доп. информация:
 
Album Info & Jazztimes.com Review
Producer: James Poke
Engineer: Derek Nash
Recorded and mixed at Clowns Pocket Studio, Bexley, Kent, England, June 2000 - Jan 2001
Executive producer: between the lines GmbH & Co. oHG
Cover art work: Jutta Obenhuber
Graphic design: fuhrer vienna
Artistic director: Franz Koglmann
This recording is dedicated to the memory of Greville Poke and Patricia Lawrence
Icebreaker is an English chamber ensemble with accordion, saxes, vibes and electric bass and guitar, which is a clue that they don't exactly play Brahms. Rather, the three pieces on Extraction are harmonically enlightened, and chipper tempos, summery sounds and all-around vitality characterize the group's approach. It's new classical music that cops a lot from other musics.
The best composition, Damian le Gassick's "Mad Legs in a Sack," is jazzy enough to be called third stream, with irregular-shaped piano phrases, saxes playing in jazz sonorities and, in the third movement, walking-bass tempos that double, redouble and divide. Most of this work is built up from twin pianos, over which the many combinations of saxes and two flutes, and their many responses, melodies and countermelodies keep the music active and alive.
While "Mad Legs" is jazzy, "The Baby Bear's Bed" by Gordon McPherson starts rocky: a heavy-metal guitar assaults with lengthy, repeated noodling around a single note. Slowly other instruments enter; eventually, ostinatos, minimalist repetitions, gradual variations occur. For much of the piece, all these things happen simultaneously. It's an exhaustingly energetic work-now and then there are nicely climactic conjunctions of lines, yet a lack of variety results from the thick textures, noodling lines and single, unyielding uptempo. "Goldylox" by Mel (no last name) is a remix of "The Baby Bear's Bed" with long, held electronic sounds in the foreground and snatches of the ensemble that fade in and out like they're coming across the water, from the other side of the lake-or like Charles Ives, as in "Decoration Day."
 
Состав
James Poke: flute, pan-pipes, keyboard programming, liner notes, artistic director
Rowland Sutherland: flutes, pan-pipes
Richard Craig: alto, tenor saxes
Bradley Grant: alto sax
Dominic Saunders: keyboards, piano
Andrew Zolinsky: keyboards, piano
David Farmer: accordion
Darragh Morgan: electric violin
Audrey Riley: electric cello
Julian Warburton: vibes, marimba, octapads
James Woodrow: guitar
Pete Wilson: bass guitars
Mel: production assistant
По всем вопросам пишите личное сообщение пользователю M0p94ok.
01:02
134
Нет комментариев. Ваш будет первым!