Поиск

(Free Improvisation, Avant-Garde Jazz) [CD] Gush (Mats Gustafsson, Sten Sandell, Raymond Strid) - Live at Fasching - 1997, FLAC (image+.cue), lossless

(Free Improvisation, Avant-Garde Jazz) [CD] Gush (Mats Gustafsson, Sten Sandell, Raymond Strid) - Live at Fasching - 1997, FLAC (image+.cue), lossless
Gush / Live at Fasching
Жанр: Free Improvisation, Avant-Garde Jazz
Носитель: CD
Страна-производитель диска: Sweden
Год издания: 1997
Издатель (лейбл): Dragon Records
Номер по каталогу: DRCD 313
Аудиокодек: FLAC (*.flac)
Тип рипа: image+.cue
Битрейт аудио: lossless
Продолжительность: 61:21
Источник (релизер): CD
Наличие сканов в содержимом раздачи: нет
Треклист:
1. Any Warranty Of (23:00)
2. And Any Warranty Otherwise (12:55)
3. Warranty Shall Be (15:07)
4. Warranty Within Reasonable Time (7:58)
5. All Other Warranties (2:21)
 
Лог создания рипа
Exact Audio Copy V1.0 beta 2 from 29. April 2011
EAC extraction logfile from 12. April 2014, 9:19
Gush / Live at Fasching
Used drive : Optiarc DVD RW AD-7170A Adapter: 0 ID: 0
Read mode : Secure
Utilize accurate stream : Yes
Defeat audio cache : Yes
Make use of C2 pointers : No
Read offset correction : 48
Overread into Lead-In and Lead-Out : No
Fill up missing offset samples with silence : Yes
Delete leading and trailing silent blocks : No
Null samples used in CRC calculations : Yes
Used interface : Native Win32 interface for Win NT & 2000
Used output format : User Defined Encoder
Selected bitrate : 320 kBit/s
Quality : High
Add ID3 tag : No
Command line compressor : C:\Program Files\Exact Audio Copy\Flac\flac.exe
Additional command line options : -V -8 -T "Date=%year%" -T "Genre=%genre%" %source%
TOC of the extracted CD
Track | Start | Length | Start sector | End sector
---------------------------------------------------------
1 | 0:00.00 | 23:00.60 | 0 | 103559
2 | 23:00.60 | 12:54.47 | 103560 | 161656
3 | 35:55.32 | 15:07.25 | 161657 | 229706
4 | 51:02.57 | 7:57.63 | 229707 | 265544
5 | 59:00.45 | 2:20.35 | 265545 | 276079
Range status and errors
Selected range
Filename K:\ЕАС\Gush - Live at Fasching.wav
Peak level 100.0 %
Extraction speed 1.9 X
Range quality 99.9 %
Test CRC 55A82B6F
Copy CRC 55A82B6F
Copy OK
No errors occurred
AccurateRip summary
Track 1 accurately ripped (confidence 2) [C54802D3] (AR v1)
Track 2 accurately ripped (confidence 2) [32A6ED57] (AR v1)
Track 3 accurately ripped (confidence 2) [E55CFB1B] (AR v1)
Track 4 accurately ripped (confidence 2) [DAA702FE] (AR v1)
Track 5 accurately ripped (confidence 2) [DACDD76F] (AR v1)
All tracks accurately ripped
End of status report
==== Log checksum 2C3B8FC3FA71FDE2DCEF1DCADCBDB9590C15E53CF0DB028A0D7A4AB782011ADB ====
 
Содержание индексной карты (.CUE)
REM GENRE Jazz
REM DATE 1997
REM DISCID 3A0E6105
REM COMMENT "ExactAudioCopy v1.0b2"
PERFORMER "Gush"
TITLE "Live at Fasching"
FILE "Gush - Live at Fasching.flac" WAVE
TRACK 01 AUDIO
TITLE "any warranty of"
PERFORMER "Gush"
ISRC SEPUC9707010
INDEX 01 00:00:00
TRACK 02 AUDIO
TITLE "and any warranty otherwise"
PERFORMER "Gush"
ISRC SEPUC9707020
INDEX 01 23:00:60
TRACK 03 AUDIO
TITLE "warranty shall be"
PERFORMER "Gush"
ISRC SEPUC9707030
INDEX 01 35:55:32
TRACK 04 AUDIO
TITLE "warranty within reasonable time"
PERFORMER "Gush"
ISRC SEPUC9707040
INDEX 01 51:02:57
TRACK 05 AUDIO
TITLE "all other warranties"
PERFORMER "Gush"
ISRC SEPUC9707050
INDEX 01 59:00:45
Доп. информация: Recorded June 12, 1996 at Jazzclub Fasching, Stockholm
 
Об альбоме (сборнике)
The Swedish trio Gush, consisting of reed maniac Mats Gustafsson, pianist Sten Sandell, and percussionist Raymond Strid, is an interesting and unusual improvising trio. Gustafsson wields prodigious and imaginative technique in a near overwhelming manner and Strid's work has a pleasant clattering quality that recalls Paul Lovens, but it's Sandell that's something of a wild card. While perfectly capable of performing in an abstract manner, he is more likely to play surprisingly, in this context, "inside." Sometimes this takes the form of chords that seem indebted to Abdullah Ibrahim, while on other occasions a brooding romanticism insinuates itself between the roaring and banging. Sandell thus provides a relatively unusual kind of glue for this kind of free improv performance. Still, a newcomer to this disc would surely come away most impressed with the sheer force and variety of sonic assaults that Gustafsson creates. At this point in his career, he was becoming a complete group player, obviously listening to his companions and no longer luxuriating in his own sound; the short closer is a model of concise, heady free improv. A good album, worth hearing.
(ALLMUSIC)
 
Состав
Soprano Saxophone, Tenor Saxophone, Reeds [Fluteophone] – Mats Gustafsson
Piano, Voice – Sten Sandell
Drums – Raymond Strid
01:01
230
Нет комментариев. Ваш будет первым!