Вы используете незарегистрированную версию компонента "Вкладки"!

Поиск

(Free Jazz, Avant-Garde Jazz) [CD] William Parker Quartet (Rob Brown, Lewis Barnes, Hamid Drake) - O'Neal's Porch - 2003, FLAC (image+.cue), lossless

(Free Jazz, Avant-Garde Jazz) [CD] William Parker Quartet (Rob Brown, Lewis Barnes, Hamid Drake) - O'Neal's Porch - 2003, FLAC (image+.cue), lossless
Треклист:
William Parker Quartet / O'Neal's Porch
Жанр: Free Jazz, Avant-Garde Jazz
Носитель: CD
Страна-производитель диска: US
Год издания: 2003
Издатель (лейбл): AUM Fidelity
Номер по каталогу: AUM022
Аудиокодек: FLAC (*.flac)
Тип рипа: image+.cue
Битрейт аудио: lossless
Продолжительность: 72:34
Источник (релизер): CD
Наличие сканов в содержимом раздачи: нет
Треклист:
1 Purple 9:56
2 Sun 13:56
3 O'Neal's Porch 13:42
4 Rise 9:39
5 Song For Jesus 9:01
6 Leaf 4:50
7 Song For Jesus 3/4 6:18
8 Moon 5:12
 
Лог создания рипа
Exact Audio Copy V1.0 beta 2 from 29. April 2011
EAC extraction logfile from 11. April 2014, 11:56
William Parker Quartet / O'Neal's Porch
Used drive : Optiarc DVD RW AD-7170A Adapter: 0 ID: 0
Read mode : Secure
Utilize accurate stream : Yes
Defeat audio cache : Yes
Make use of C2 pointers : No
Read offset correction : 48
Overread into Lead-In and Lead-Out : No
Fill up missing offset samples with silence : Yes
Delete leading and trailing silent blocks : No
Null samples used in CRC calculations : Yes
Used interface : Native Win32 interface for Win NT & 2000
Used output format : User Defined Encoder
Selected bitrate : 320 kBit/s
Quality : High
Add ID3 tag : No
Command line compressor : C:\Program Files\Exact Audio Copy\Flac\flac.exe
Additional command line options : -V -8 -T "Date=%year%" -T "Genre=%genre%" %source%
TOC of the extracted CD
Track | Start | Length | Start sector | End sector
---------------------------------------------------------
1 | 0:00.00 | 9:56.15 | 0 | 44714
2 | 9:56.15 | 13:55.65 | 44715 | 107404
3 | 23:52.05 | 13:42.24 | 107405 | 169078
4 | 37:34.29 | 9:39.29 | 169079 | 212532
5 | 47:13.58 | 9:00.28 | 212533 | 253060
6 | 56:14.11 | 4:50.31 | 253061 | 274841
7 | 61:04.42 | 6:17.71 | 274842 | 303187
8 | 67:22.38 | 5:11.58 | 303188 | 326570
Range status and errors
Selected range
Filename K:\ЕАС\William Parker Quartet - O'Neal's Porch.wav
Peak level 99.4 %
Extraction speed 2.1 X
Range quality 99.9 %
Test CRC CDF78DD2
Copy CRC CDF78DD2
Copy OK
No errors occurred
AccurateRip summary
Track 1 accurately ripped (confidence 2) [313A49A6] (AR v2)
Track 2 accurately ripped (confidence 2) [F52FE48C] (AR v2)
Track 3 accurately ripped (confidence 2) [0BF11652] (AR v2)
Track 4 accurately ripped (confidence 2) [3A8C363D] (AR v1)
Track 5 accurately ripped (confidence 2) [CD9BD4E8] (AR v1)
Track 6 accurately ripped (confidence 2) [6A10A78B] (AR v1)
Track 7 accurately ripped (confidence 2) [F64D6EB3] (AR v2)
Track 8 accurately ripped (confidence 2) [E28218D0] (AR v2)
All tracks accurately ripped
End of status report
==== Log checksum 959BCABEF038AB31F4323092E55383D2CB6B1BA4BF6473F9969F2501651D04A1 ====
 
Содержание индексной карты (.CUE)
REM GENRE Jazz
REM DATE 2003
REM DISCID 79110208
REM COMMENT "ExactAudioCopy v1.0b2"
PERFORMER "William Parker Quartet"
TITLE "O'Neal's Porch"
FILE "William Parker Quartet - O'Neal's Porch.flac" WAVE
TRACK 01 AUDIO
TITLE "Purple"
PERFORMER "William Parker Quartet"
ISRC 000000000000
INDEX 01 00:00:00
TRACK 02 AUDIO
TITLE "Sun"
PERFORMER "William Parker Quartet"
ISRC 000000000000
INDEX 01 09:56:15
TRACK 03 AUDIO
TITLE "O'Neal's Porch"
PERFORMER "William Parker Quartet"
ISRC 000000000000
INDEX 01 23:52:05
TRACK 04 AUDIO
TITLE "Rise"
PERFORMER "William Parker Quartet"
ISRC 000000000000
INDEX 01 37:34:29
TRACK 05 AUDIO
TITLE "Song for Jesus"
PERFORMER "William Parker Quartet"
ISRC 000000000000
INDEX 01 47:13:58
TRACK 06 AUDIO
TITLE "Leaf"
PERFORMER "William Parker Quartet"
ISRC 000000000000
INDEX 01 56:14:11
TRACK 07 AUDIO
TITLE "Song for Jesus 3/4"
PERFORMER "William Parker Quartet"
ISRC 000000000000
INDEX 01 61:04:42
TRACK 08 AUDIO
TITLE "Moon"
PERFORMER "William Parker Quartet"
ISRC 000000000000
INDEX 01 67:22:38
Доп. информация: Recorded on May 26, 2000 at Seltzer Sound, NYC.
 
Об альбоме (сборнике)
On the heels of two very intriguing CDs (Painter's Spring and Mayor of Punkville), luminary bassist William Parker let loose another for 2000 on his own Centering Music label. O'Neal's Porch, a tribute of sorts to Parker's late uncle, features a quartet with Rob Brown on alto sax, Lewis Barnes blowing trumpet, and Hamid Drake, Parker's compatriot since 1998, banging drums. While Brown and Barnes are familiar playing with the bassist (both have performed in his large ensembles), Parker and Drake comprise the best rhythm section in jazz; together, they should go down in the history books as one of the most fruitful and interesting musical relationships this side of Ellington and Strayhorn, Diz and Bird, and Miles and Trane. The result is a strangely digestible and swinging affair of Eric Dolphy-influenced bop. That's not to say that O'Neal's Porch is a straight-ahead recording, as Brown burns on "Sun" and "Leaf" while Barnes plays colorful textures and his own blistering solos throughout. Meanwhile, Drake probes his inventive open-framed progressions and joins together with Parker for simultaneous swinging and exploring. All eight songs are crisply recorded Parker originals that spotlight his interest in sound as a physical and emotional event, while proving that one does not have to play the freest of free jazz to be inventive. Most importantly, this collection also demonstrates that jazz can be propelled within its traditions as a stepping stone and not necessarily as a model to copy. O'Neal's Porch and Parker's brand of inside/outside compositions mark territory that proves the so-called avant is not that philosophically far away from the modern mainstream revivalists.
 
Состав
Alto Saxophone – Rob Brown
Bass – William Parker
Drums – Hamid Drake
Trumpet – Lewis Barnes
По всем вопросам пишите личное сообщение пользователю M0p94ok.
01:01
168
Нет комментариев. Ваш будет первым!