Вы используете незарегистрированную версию компонента "Вкладки"!

Поиск

(Free Jazz, Avant-Garde Jazz) [CD] William Parker Quartet (Rob Brown, Lewis Barnes, Hamid Drake) - Sound Unity - 2005, FLAC (image+.cue), lossless

(Free Jazz, Avant-Garde Jazz) [CD] William Parker Quartet (Rob Brown, Lewis Barnes, Hamid Drake) - Sound Unity - 2005, FLAC (image+.cue), lossless
Треклист:
William Parker Quartet / Sound Unity
Жанр: Free Jazz, Avant-Garde Jazz
Носитель: CD
Страна-производитель диска: US
Год издания: 2005
Издатель (лейбл): AUM Fidelity
Номер по каталогу: AUM034
Аудиокодек: FLAC (*.flac)
Тип рипа: image+.cue
Битрейт аудио: lossless
Продолжительность: 70:32
Источник (релизер): CD
Наличие сканов в содержимом раздачи: нет
Треклист:
1 Hawaii 12:32
2 Wood Flute Song 10:43
3 Poem For June Jordan 8:53
4 Sound Unity 21:02
5 Harlem 8:48
6 Groove 8:19
 
Лог создания рипа
Exact Audio Copy V1.0 beta 2 from 29. April 2011
EAC extraction logfile from 11. April 2014, 13:38
William Parker Quartet / Sound Unity
Used drive : Optiarc DVD RW AD-7170A Adapter: 0 ID: 0
Read mode : Secure
Utilize accurate stream : Yes
Defeat audio cache : Yes
Make use of C2 pointers : No
Read offset correction : 48
Overread into Lead-In and Lead-Out : No
Fill up missing offset samples with silence : Yes
Delete leading and trailing silent blocks : No
Null samples used in CRC calculations : Yes
Used interface : Native Win32 interface for Win NT & 2000
Used output format : User Defined Encoder
Selected bitrate : 320 kBit/s
Quality : High
Add ID3 tag : No
Command line compressor : C:\Program Files\Exact Audio Copy\Flac\flac.exe
Additional command line options : -V -8 -T "Date=%year%" -T "Genre=%genre%" %source%
TOC of the extracted CD
Track | Start | Length | Start sector | End sector
---------------------------------------------------------
1 | 0:00.00 | 12:34.67 | 0 | 56616
2 | 12:34.67 | 10:45.14 | 56617 | 105005
3 | 23:20.06 | 8:55.64 | 105006 | 145194
4 | 32:15.70 | 21:05.52 | 145195 | 240121
5 | 53:21.47 | 8:51.21 | 240122 | 279967
6 | 62:12.68 | 8:19.43 | 279968 | 317435
Range status and errors
Selected range
Filename K:\ЕАС\William Parker Quartet - Sound Unity.wav
Peak level 100.0 %
Extraction speed 2.1 X
Range quality 100.0 %
Test CRC 50627F89
Copy CRC 50627F89
Copy OK
No errors occurred
AccurateRip summary
Track 1 accurately ripped (confidence 6) [EAEA37AF] (AR v2)
Track 2 accurately ripped (confidence 6) [3318F931] (AR v2)
Track 3 accurately ripped (confidence 6) [CD2F5DF1] (AR v2)
Track 4 accurately ripped (confidence 5) [57F20640] (AR v2)
Track 5 accurately ripped (confidence 5) [031DAE74] (AR v2)
Track 6 accurately ripped (confidence 4) [F14802D1] (AR v2)
All tracks accurately ripped
End of status report
==== Log checksum F54AF825F8CF697D437495A9C64FC07259FF6EEF78C34E71CB0C4528CEEB61E9 ====
 
Содержание индексной карты (.CUE)
REM GENRE Jazz
REM DATE 2005
REM DISCID 48108806
REM COMMENT "ExactAudioCopy v1.0b2"
PERFORMER "William Parker Quartet"
TITLE "Sound Unity"
FILE "William Parker Quartet - Sound Unity.flac" WAVE
TRACK 01 AUDIO
TITLE "Hawaii"
PERFORMER "William Parker Quartet"
ISRC 000000000000
FLAGS DCP
INDEX 01 00:00:00
TRACK 02 AUDIO
TITLE "Wood Flute Song"
PERFORMER "William Parker Quartet"
ISRC 000000000000
FLAGS DCP
INDEX 00 12:32:67
INDEX 01 12:34:67
TRACK 03 AUDIO
TITLE "Poem For June Jordan"
PERFORMER "William Parker Quartet"
ISRC 000000000000
FLAGS DCP
INDEX 00 23:18:06
INDEX 01 23:20:06
TRACK 04 AUDIO
TITLE "Sound Unity"
PERFORMER "William Parker Quartet"
ISRC 000000000000
FLAGS DCP
INDEX 00 32:13:70
INDEX 01 32:15:70
TRACK 05 AUDIO
TITLE "Harlem"
PERFORMER "William Parker Quartet"
ISRC 000000000000
FLAGS DCP
INDEX 00 53:18:47
INDEX 01 53:21:47
TRACK 06 AUDIO
TITLE "Groove"
PERFORMER "William Parker Quartet"
ISRC 000000000000
FLAGS DCP
INDEX 00 62:09:68
INDEX 01 62:12:68
Доп. информация: Recorded in Canada:
Tracks 1, 2, 5, 6 recorded at Vancouver East Cultural Centre on Friday, July 2, 2004 . [Vancouver International Festival]
Tracks 3, 4 recorded at La Sala Rossa on Sunday, June 27, 2004. [Suoni Per Il Popolo (Montreal)]
This album is dedicated to Charles Stimac.
 
Об альбоме (сборнике)
Recorded at two live dates in Canada in July and July of 2004, Sound Unity is the most beautifully wrought of William Parker's ensemble recordings. Certainly it doesn't break as much ground as some, and it acknowledges his debts to composers like Ornette Coleman, Don Cherry, and Eric Dolphy, and that's fine; in Parker's able hands as a leader, this band with saxophonist Rob Brown, drummer Hamid Drake (are he and Parker the best rhythm section in jazz or what?), and trumpeter Lewis Barnes understands that both listening and silence are as important as what notes to play. The interaction between the horn players feels like they've been playing together for a very long time -- check out the 18-plus-minute title track. What's also important to note here is the fluidity that the rhythm section engages the horns with, such as on "Wood Flute Song," or the crazy, funky joy on "Hawaii." The bandmembers nearly lift off; they're having so much fun. The music on this set is one of those bridges -- across tradition, subgenre, nuance, and harmony. Parker's lyricism is profound, and has never been heard quite like this before. Brown is a more subtle player than some Parker has worked with before, and Barnes is a natural singer on the trumpet. The gap that's provided in the absence of a piano allows for a less strident interaction harmonically and dialogically. The music here flows, reaches, steps back, and reaches further, with Parker's guidance allowing for the horns to push one another as they do on "Groove," not so much for what they know, but for what they bring to a tune emotionally. "Harlem"'s folk song melody and lyric are among the most beautiful Parker has yet written; it's a place where blues and the Middle Eastern musics of Morocco come together. This is a stellar offering from one of the music's greatest lights.
 
Состав
Alto Saxophone – Rob Brown
Bass, Composed By, Producer – William Parker
Drums – Hamid Drake
Trumpet – Lewis Barnes
По всем вопросам пишите личное сообщение пользователю M0p94ok.
01:00
135
Нет комментариев. Ваш будет первым!