Вы используете незарегистрированную версию компонента "Вкладки"!

Поиск

(Free Jazz, Post Bop, Contemporary Jazz) Raphe Malik Quartet (Frank Wright, William Parker, Syd Smart) - Last Set Live at The 1369 Jazz Club - 2004, FLAC (image+.cue), lossless

(Free Jazz, Post Bop, Contemporary Jazz) Raphe Malik Quartet (Frank Wright, William Parker, Syd Smart) - Last Set Live at The 1369 Jazz Club - 2004, FLAC (image+.cue), lossless
Треклист:
Raphe Malik Quartet / Last Set Live at The 1369 Jazz Club
Жанр: Free Jazz, Post Bop, Contemporary Jazz
Страна-производитель диска: US
Год издания: 2004
Издатель (лейбл): Boxholder Records
Номер по каталогу: BXH042
Аудиокодек: FLAC (*.flac)
Тип рипа: image+.cue
Битрейт аудио: lossless
Продолжительность: 55:38
Источник (релизер): cd
Наличие сканов в содержимом раздачи: нет
Треклист:
1 Sad C 15:02
2 Companions 29:56
3 Chaser 10:16
 
Лог создания рипа
Exact Audio Copy V1.0 beta 2 from 29. April 2011
EAC extraction logfile from 20. November 2012, 11:28
Raphe Malik Quartet / Last Set: Live At The 1369 Jazz Club
Used drive : Optiarc DVD RW AD-7170A Adapter: 0 ID: 0
Read mode : Secure
Utilize accurate stream : Yes
Defeat audio cache : Yes
Make use of C2 pointers : No
Read offset correction : 48
Overread into Lead-In and Lead-Out : No
Fill up missing offset samples with silence : Yes
Delete leading and trailing silent blocks : No
Null samples used in CRC calculations : Yes
Used interface : Native Win32 interface for Win NT & 2000
Used output format : User Defined Encoder
Selected bitrate : 320 kBit/s
Quality : High
Add ID3 tag : No
Command line compressor : C:\Program Files\Exact Audio Copy\Flac\flac.exe
Additional command line options : -V -8 -T "Date=%year%" -T "Genre=%genre%" %source%
TOC of the extracted CD
Track | Start | Length | Start sector | End sector
---------------------------------------------------------
1 | 0:00.00 | 15:11.14 | 0 | 68338
2 | 15:11.14 | 30:07.55 | 68339 | 203918
3 | 45:18.69 | 10:19.63 | 203919 | 250406
Range status and errors
Selected range
Filename K:\ЕАС\Raphe Malik Quartet - Last Set- Live At The 1369 Jazz Club.wav
Peak level 91.5 %
Extraction speed 1.9 X
Range quality 100.0 %
Test CRC F167F295
Copy CRC F167F295
Copy OK
No errors occurred
AccurateRip summary
Track 1 not present in database
Track 2 not present in database
Track 3 not present in database
None of the tracks are present in the AccurateRip database
End of status report
==== Log checksum 42520DB471337E0F993BDABB16FC094C92CD60637AB8D40EC87DFCB67B6C11C4 ====
 
Содержание индексной карты (.CUE)
REM GENRE Jazz
REM DATE 2004
REM DISCID 1A0D0A03
REM COMMENT "ExactAudioCopy v1.0b2"
PERFORMER "Raphe Malik Quartet"
TITLE "Last Set: Live At The 1369 Jazz Club"
FILE "Raphe Malik Quartet - Last Set- Live At The 1369 Jazz Club.flac" WAVE
TRACK 01 AUDIO
TITLE "Sad C"
PERFORMER "Raphe Malik Quartet"
ISRC USRBM8600001
FLAGS DCP
INDEX 01 00:00:00
TRACK 02 AUDIO
TITLE "Companions #2"
PERFORMER "Raphe Malik Quartet"
ISRC USRBM8600002
FLAGS DCP
INDEX 00 15:09:34
INDEX 01 15:11:14
TRACK 03 AUDIO
TITLE "Chaser"
PERFORMER "Raphe Malik Quartet"
ISRC USRBM8600003
FLAGS DCP
INDEX 00 45:17:14
INDEX 01 45:18:69
Доп. информация: Recorded live on September 13, 1984 at The 1369 Jazz Club, Cambridge Massachussets
 
Состав
Bass – William Parker
Drums – Syd Smart
Saxophone [Tenor], Voice – Frank Wright
Trumpet, Composed By – Raphe Malik
Any questions -> support@pro-jazz.com. По всем вопросам пишите -> support@pro-jazz.com
05:36
123
Нет комментариев. Ваш будет первым!