Вы используете незарегистрированную версию компонента "Вкладки"!

Поиск

(free jazz, contemporary jazz) Black Motor - Vaarat vastukset - 2008, FLAC (tracks+.cue), lossless

(free jazz, contemporary jazz) Black Motor - Vaarat vastukset - 2008, FLAC (tracks+.cue), lossless
Треклист:
Black Motor - Vaarat vastukset
Жанр: free jazz, contemporary jazz
Страна-производитель диска: Italy
Год издания: 2008
Издатель (лейбл): Dreamsheep
Номер по каталогу: DS008
Страна: Финляндия
Аудиокодек: FLAC (*.flac)
Тип рипа: tracks+.cue
Битрейт аудио: lossless
Продолжительность: 43:06
Источник (релизер): what.cd
Наличие сканов в содержимом раздачи: нет
Треклист:
1. Yksi Sinulta Puuttuu [10:59]
Written-By – Black Motor
2. Hard Man Anthem [5:30]
Written-By – Sami Sippola
3. Aamen [5:43]
Arranged By – Black Motor, Jukka Orma Written-By – Sami Sippola
4. Vaarat Vastukset [7:52]
Written-By – Ville Rauhala
5. Alma [6:06]
Written-By – Ville Rauhala
6. Vainila [6:57]
Written-By – Ville Rauhala
 
Лог создания рипа
Exact Audio Copy V1.0 beta 2 from 29. April 2011
EAC extraction logfile from 6. May 2012, 11:57
Black Motor / Vaarat vastukset
Used drive : TSSTcorpCDDVDW SH-S223L Adapter: 1 ID: 1
Read mode : Secure
Utilize accurate stream : Yes
Defeat audio cache : Yes
Make use of C2 pointers : No
Read offset correction : 6
Overread into Lead-In and Lead-Out : No
Fill up missing offset samples with silence : Yes
Delete leading and trailing silent blocks : No
Null samples used in CRC calculations : Yes
Used interface : Native Win32 interface for Win NT & 2000
Gap handling : Appended to previous track
Used output format : User Defined Encoder
Selected bitrate : 896 kBit/s
Quality : High
Add ID3 tag : No
Command line compressor : C:\Program Files (x86)\Exact Audio Copy\Flac\flac.exe
Additional command line options : -8 -V -T "ARTIST=%artist%" -T "TITLE=%title%" -T "ALBUM=%albumtitle%" -T "DATE=%year%" -T "TRACKNUMBER=%tracknr%" -T "GENRE=%genre%" -T "PERFORMER=%albuminterpret%" -T "COMPOSER=%composer%" %haslyrics%--tag-from-file=LYRIC
TOC of the extracted CD
Track | Start | Length | Start sector | End sector
---------------------------------------------------------
1 | 0:00.00 | 10:59.36 | 0 | 49460
2 | 10:59.36 | 5:30.13 | 49461 | 74223
3 | 16:29.49 | 5:42.61 | 74224 | 99934
4 | 22:12.35 | 7:51.51 | 99935 | 135310
5 | 30:04.11 | 6:05.43 | 135311 | 162728
6 | 36:09.54 | 6:56.41 | 162729 | 193969
Track 1
Filename M:\Music\What 4\Black Motor - Vaarat vastukset (2009) [FLAC]\01 - Yksi sinulta puuttuu.wav
Pre-gap length 0:00:02.00
Peak level 96.6 %
Extraction speed 3.2 X
Track quality 100.0 %
Test CRC 5F8078BC
Copy CRC 5F8078BC
Accurately ripped (confidence 1) [E94C5826] (AR v1)
Copy OK
Track 2
Filename M:\Music\What 4\Black Motor - Vaarat vastukset (2009) [FLAC]\02 - Hard Man Anthem.wav
Pre-gap length 0:00:02.00
Peak level 96.6 %
Extraction speed 2.4 X
Track quality 100.0 %
Test CRC D18E2944
Copy CRC D18E2944
Accurately ripped (confidence 1) [6257C67F] (AR v1)
Copy OK
Track 3
Filename M:\Music\What 4\Black Motor - Vaarat vastukset (2009) [FLAC]\03 - Aamen.wav
Pre-gap length 0:00:02.00
Peak level 96.6 %
Extraction speed 3.9 X
Track quality 100.0 %
Test CRC 2898B3F8
Copy CRC 2898B3F8
Accurately ripped (confidence 1) [6C6E0B04] (AR v1)
Copy OK
Track 4
Filename M:\Music\What 4\Black Motor - Vaarat vastukset (2009) [FLAC]\04 - Vaarat vastukset.wav
Pre-gap length 0:00:02.00
Peak level 96.6 %
Extraction speed 4.4 X
Track quality 100.0 %
Test CRC B909C8CE
Copy CRC B909C8CE
Accurately ripped (confidence 1) [079E0FBD] (AR v1)
Copy OK
Track 5
Filename M:\Music\What 4\Black Motor - Vaarat vastukset (2009) [FLAC]\05 - Alma.wav
Pre-gap length 0:00:02.00
Peak level 96.6 %
Extraction speed 4.6 X
Track quality 100.0 %
Test CRC C1A90CD4
Copy CRC C1A90CD4
Accurately ripped (confidence 1) [2FF6BF62] (AR v1)
Copy OK
Track 6
Filename M:\Music\What 4\Black Motor - Vaarat vastukset (2009) [FLAC]\06 - Vainila.wav
Pre-gap length 0:00:02.00
Peak level 96.6 %
Extraction speed 5.0 X
Track quality 100.0 %
Test CRC B2A46DB7
Copy CRC B2A46DB7
Accurately ripped (confidence 1) [A44B1B4D] (AR v1)
Copy OK
All tracks accurately ripped
No errors occurred
End of status report
==== Log checksum 8C1266D81D0977497231794151DDE809EBEA5D7293F571F60490EAC156050718 ====
 
Содержание индексной карты (.CUE)
REM GENRE Jazz
REM DATE 2009
REM DISCID 470A1A06
REM COMMENT "ExactAudioCopy v1.0b2"
PERFORMER "Black Motor"
TITLE "Vaarat vastukset"
FILE "01 - Yksi sinulta puuttuu.wav" WAVE
TRACK 01 AUDIO
TITLE "Yksi sinulta puuttuu"
PERFORMER "Black Motor"
FLAGS DCP
INDEX 01 00:00:00
TRACK 02 AUDIO
TITLE "Hard Man Anthem"
PERFORMER "Black Motor"
FLAGS DCP
INDEX 00 10:57:36
FILE "02 - Hard Man Anthem.wav" WAVE
INDEX 01 00:00:00
TRACK 03 AUDIO
TITLE "Aamen"
PERFORMER "Black Motor"
FLAGS DCP
INDEX 00 05:28:13
FILE "03 - Aamen.wav" WAVE
INDEX 01 00:00:00
TRACK 04 AUDIO
TITLE "Vaarat vastukset"
PERFORMER "Black Motor"
FLAGS DCP
INDEX 00 05:40:61
FILE "04 - Vaarat vastukset.wav" WAVE
INDEX 01 00:00:00
TRACK 05 AUDIO
TITLE "Alma"
PERFORMER "Black Motor"
FLAGS DCP
INDEX 00 07:49:51
FILE "05 - Alma.wav" WAVE
INDEX 01 00:00:00
TRACK 06 AUDIO
TITLE "Vainila"
PERFORMER "Black Motor"
FLAGS DCP
INDEX 00 06:03:43
FILE "06 - Vainila.wav" WAVE
INDEX 01 00:00:00
 
Лог проверки качества
AUDIOCHECKER v2.0 beta (build 457) - by Dester - opdester@freemail.hu
~~~~~~~~~~~~~~~~~~~~~~~~~~~~~~~~~~
-=== НЕ РЕДАКТИРУЙТЕ ЭТОТ ФАЙЛ! ===-
Путь: ...\Black Motor - Vaarat vastukset (2009) [FLAC]
1 -=- 01 - Yksi sinulta puuttuu.flac -=- CDDA (100%)
2 -=- 02 - Hard Man Anthem.flac -=- CDDA (100%)
3 -=- 03 - Aamen.flac -=- CDDA (100%)
4 -=- 04 - Vaarat vastukset.flac -=- CDDA (99%)
5 -=- 05 - Alma.flac -=- CDDA (100%)
6 -=- 06 - Vainila.flac -=- CDDA (100%)
Сводка 99,83% CDDA
84278884
 
Об исполнителе (группе)
Сами Сиппола (Sami Sippola): саксофоны
Вилле Раухала (Ville Rauhala): контрабас
Симо Лайхонен (Simo Laihonen): ударные, флейты
Импровизационное трио Black Motor из города Тампере, Финляндия, было создано в 2005, на данный момент они выпустили 7 альбомов:
On Duty (Kissankusi Records 2007)
Black Motor (Qbico Records 2007)
Club El Toro (Ruby Red Editora 2008)
Vaarat Vastukset (Dreamsheep Records 2008)
Never Out Of Fashion-Live In Amsterdam (Kauriala Society 2010)
Hoojaa (Kauriala Society 2011)
Jumehniemi (Sagittarius A-Star Records/LP & Kauriala Society/CD 2012)
Помимо активной деятельности в качестве трио, Black Motor работает с приглашёнными музыкантами и артистами других направлений. Они сотрудничали с такими музыкантами, как Jukka Orma, Verneri Pohjola, Raoul Björkenheim, Jorma Tapio, Peter Brötzmann, Jone Takamäki, Tane Kannisto, Iro Haarla, Uffe Krokfors, Teppo Hauta-Aho, Harri Sjöström, Gianni Mimmo, Mike Koskinen, Jon Ballantyne, PK Keränen и Sonny Heinilä. Проходящие в Тампере концерты Black Motor с гастролирующими музыкантами заслужили на протяжении последних лет устойчивое общественное признание в Финляндии.
Их альбом "Hoojaa" номинировался на премию Emma (финская "Грэмми") в категории лучший джазовый альбом года.
В 2012 году группа выступает на Kongsberg Jazz Festival, Copenhagen Jazz Festival, London Jazz Festival, Blow Out Festival Oslo, Pori Jazz Festival, KeiteleJazz, Tampere Jazz Happening и в различных клубах Финляндии, Скандинавии и России. В августе Black Motor открывают новый клубный сезон концертом с саксофонистом Юхани Аалтоненом (Juhani Aaltonen). В рамках сентябрьского тура по северной Лапландии (Staalon Kaato) BM сотрудничают с 22-Pistepirkko, Teho Majamäki, Andrew Ashimba и Niillas Holmberg.
В октябре 2012 выходит два новых альбома: "Jumehniemi" на Sagittarius A-Star records (Италия) и запись в квартете с трубачом Вернери Похъёла (Verneri Pohjola) на TUM records (Финляндия)
Из прессы:
"Возможно, это, наконец, та пластинка (Hoojaa), на которой одна из лучших финских джазовых групп всех времён оказалась в своей стихии" Soundi Magazine/Arttu Tolonen 2011
"После этих пластинок (Club El Toro и Vaarat Vastukset) ни у кого не должно возникать вопроса, кто такие Сами Сиппола, Симо Лайхонен и Вилле Раухала" Helsingin Sanomat/Harri Uusitorppa, 2009
"Impressively engineered high-energy, rhythmically driving improvisations (Tampere Jazz Happening 2009)"
All About Jazz/Laurence Donohue-Greene 2009
В высшей степени энергичное трио из Тампере – может быть, самый трудолюбивый и самый свободный из джазовых коллективов Финляндии. Их визитной карточкой стала традиция приглашать на сцену друзей и коллег: от Jukka Orma, Raoul Björkenheim и Jo' Buddy – до Teppo Hauta-Aho, Jone Takamäki, Jorma Tapio и многих других. Ещё одна характерная черта трио заключается в том, что хотя основная линия их творчества – серьёзный джаз, его наполняют огромные любовь и знание многих других жанров: от блюза, регги и рок-н-ролла до финских эстрадных шлягеров и различных этнических стилей. Сами Сиппола играет главным образом на тенор-саксофоне, но также и на других саксофонах в духе Гато Барбиери и Сонни Роллинса, не забывая космичности Джона Колтрейна и Фэроу Сандерса. Не найдётся басиста круче Вилле Раухала, а Симо Лайхонен играет на ударных как Эдвард Весала или Рашид Али: он излучает ощущение свинга даже во время путешествия по ту сторону Сириуса. У группы много собственного материала, но их последний альбом Hooja попал в яблочко благодаря композициям их старого друга Кусти Вуоринена (Tampo, Suurin Onni)
Jussi Niemi/ Pori Jazz 2012 program
http://www.reverbnation.com/blackmotor
http://www.youtube.com/watch?v=AQ2E1LtDizI
http://www.youtube.com/watch?v=D2SMXE4kVRg
http://www.youtube.com/watch?v=DPNap2IEQNs
http://www.youtube.com/watch?v=7Gt9LqZTBI4
 
Об альбоме (сборнике)
Recorded at Pyynikki Hall, Tampere 9 December 2007 (1 & 2) and at Old Väs, Tampere 11 March 2008 (3, 4, 5 & 6).
 
Состав
Arranged By – Black Motor
Double Bass, Bells, Voice – Ville Rauhala
Drums, Bells, Gong, Flute [Bamboo], Voice, Artwork By – Simo Laihonen
Mixed By [Additional], Recorded By [Additional], Edited By [Additional] – Juha Timonen
Mixed By, Recorded By – Jussi Suonikko (tracks: 3, 4, 5, 6), Laura Jaatinen (tracks: 1, 2)
Photography – Anonymous
Photography, Mastered By – Jussi Suonikko
Saxophone [Tenor], Saxophone [Mouthpiece], Voice – Sami Sippola
Any questions -> support@pro-jazz.com. По всем вопросам пишите -> support@pro-jazz.com
05:36
145
Нет комментариев. Ваш будет первым!