Вы используете незарегистрированную версию компонента "Вкладки"!

Поиск

(Free Jazz, Free Improvisation) Bobby Bradford, Frode Gjerstad, Ingebrigt Haker Flaten, Paal Nilssen-Love - Reknes - 2009, FLAC (image+.cue), lossless

(Free Jazz, Free Improvisation) Bobby Bradford, Frode Gjerstad, Ingebrigt Haker Flaten, Paal Nilssen-Love - Reknes - 2009, FLAC (image+.cue), lossless
Треклист:
Bradford + Gjerstad + Håker Flaten + Nilssen-Love / Reknes
Жанр: Free Jazz, Free Improvisation
Страна-производитель диска: Norway
Год издания: 2009
Издатель (лейбл): Circulasione Totale
Номер по каталогу: CTCD11
Аудиокодек: FLAC (*.flac)
Тип рипа: image+.cue
Битрейт аудио: lossless
Продолжительность: 58:27
Источник (релизер): cd
Наличие сканов в содержимом раздачи: нет
Треклист:
1 Reknes 1 17:06
2 Reknes 2 12:54
3 Reknes 3 17:42
4 Reknes 4 10:46
 
Лог создания рипа
Exact Audio Copy V1.0 beta 2 from 29. April 2011
EAC extraction logfile from 20. November 2012, 12:55
Bradford, Gjerstad, Haker Flaten, Nilssen-Love / Reknes
Used drive : Optiarc DVD RW AD-7170A Adapter: 0 ID: 0
Read mode : Secure
Utilize accurate stream : Yes
Defeat audio cache : Yes
Make use of C2 pointers : No
Read offset correction : 48
Overread into Lead-In and Lead-Out : No
Fill up missing offset samples with silence : Yes
Delete leading and trailing silent blocks : No
Null samples used in CRC calculations : Yes
Used interface : Native Win32 interface for Win NT & 2000
Used output format : User Defined Encoder
Selected bitrate : 320 kBit/s
Quality : High
Add ID3 tag : No
Command line compressor : C:\Program Files\Exact Audio Copy\Flac\flac.exe
Additional command line options : -V -8 -T "Date=%year%" -T "Genre=%genre%" %source%
TOC of the extracted CD
Track | Start | Length | Start sector | End sector
---------------------------------------------------------
1 | 0:00.00 | 17:05.62 | 0 | 76936
2 | 17:05.62 | 12:54.10 | 76937 | 134996
3 | 29:59.72 | 17:41.40 | 134997 | 214611
4 | 47:41.37 | 10:45.59 | 214612 | 263045
Range status and errors
Selected range
Filename K:\ЕАС\Bradford, Gjerstad, Haker Flaten, Nilssen-Love - Reknes.wav
Peak level 94.4 %
Extraction speed 2.0 X
Range quality 100.0 %
Test CRC FCFDF194
Copy CRC FCFDF194
Copy OK
No errors occurred
AccurateRip summary
Track 1 not present in database
Track 2 not present in database
Track 3 not present in database
Track 4 not present in database
None of the tracks are present in the AccurateRip database
End of status report
==== Log checksum 518D6A1DCF448D6210D3F0A58AE847AEE522B948536111BA95DAB2BB5AA4DE7D ====
 
Содержание индексной карты (.CUE)
REM GENRE "Free Jazz"
REM DATE 2008
REM DISCID 290DB304
REM COMMENT "ExactAudioCopy v1.0b2"
PERFORMER "Bradford, Gjerstad, Haker Flaten, Nilssen-Love"
TITLE "Reknes"
FILE "Bradford, Gjerstad, Haker Flaten, Nilssen-Love - Reknes.flac" WAVE
TRACK 01 AUDIO
TITLE "Reknes 1"
PERFORMER "Bradford, Gjerstad, Haker Flaten, Nilssen-Love"
ISRC 000000000000
INDEX 01 00:00:00
TRACK 02 AUDIO
TITLE "Reknes 2"
PERFORMER "Bradford, Gjerstad, Haker Flaten, Nilssen-Love"
ISRC 000000000000
INDEX 01 17:05:62
TRACK 03 AUDIO
TITLE "Reknes 3"
PERFORMER "Bradford, Gjerstad, Haker Flaten, Nilssen-Love"
ISRC 000000000000
INDEX 01 29:59:72
TRACK 04 AUDIO
TITLE "Reknes 4"
PERFORMER "Bradford, Gjerstad, Haker Flaten, Nilssen-Love"
ISRC 000000000000
INDEX 01 47:41:37
Доп. информация: Recorded at the Molde International Jazz Festival 2008
 
Состав
Cornet – Bobby Bradford
Double Bass – Ingebrigt Håker Flaten
Drums – Paal Nilssen-Love
Saxophone, Clarinet – Frode Gjerstad
Any questions -> support@pro-jazz.com. По всем вопросам пишите -> support@pro-jazz.com
05:37
180
Нет комментариев. Ваш будет первым!