Вы используете незарегистрированную версию компонента "Вкладки"!

Поиск

(free jazz, post-bop) [cd] Steve Lacy - Scratching The Seventies, Dreams (1996) {Saravah - SHL 2082}, FLAC (tracks+.cue), lossless

(free jazz, post-bop) [cd] Steve Lacy - Scratching The Seventies, Dreams (1996) {Saravah - SHL 2082}, FLAC (tracks+.cue), lossless
Треклист:
(free jazz, post-bop) [cd] Steve Lacy - Scratching The Seventies, Dreams (1996) {Saravah - SHL 2082}, FLAC (tracks+.cue), lossless


Steve Lacy - Scratching The Seventies, Dreams (1996) {Saravah - SHL 2082}

Жанр:free jazz, post-bop
Год выпуска: 1996
Издатель (лейбл):Saravah - SHL 2082
Формат: FLAC (tracks+.cue)
Битрейт аудио: lossless
Продолжительность: 3`15`13
Источник: avxhome
 
disc 1


disc 1

01 - Three Pieces From Tao (Existence, The Way, Life On Its Way)
02 - The Highway
03 - The Cryptosphere
04 - Lapis
05 - The Precipitation Suite (I feel a draft, Cloudy, Rain)
06 - Paris Rip-Off
07 - Ladies
08 - Obituary
09 - Scraps
10 - Name
11 - Torments
12 - Pearl Street
13 - The Wire

 
.log
Exact Audio Copy V1.0 beta 3 from 29. August 2011
EAC extraction logfile from 20. July 2013, 16:27
Steve Lacy / Scratching the Seventies, Dreams
Used drive : TSSTcorpCDDVDW SE-S084F Adapter: 3 ID: 0
Read mode : Secure
Utilize accurate stream : Yes
Defeat audio cache : Yes
Make use of C2 pointers : No
Read offset correction : 6
Overread into Lead-In and Lead-Out : No
Fill up missing offset samples with silence : Yes
Delete leading and trailing silent blocks : No
Null samples used in CRC calculations : Yes
Used interface : Native Win32 interface for Win NT & 2000
Gap handling : Appended to previous track
Used output format : User Defined Encoder
Selected bitrate : 1024 kBit/s
Quality : High
Add ID3 tag : No
Command line compressor : C:\Program Files (x86)\Exact Audio Copy\FLAC\FLAC.EXE
Additional command line options : -8 -V -T "ARTIST=%artist%" -T "TITLE=%title%" -T "ALBUM=%albumtitle%" -T "DATE=%year%" -T "TRACKNUMBER=%tracknr%" -T "TOTALTRACKS=%numtracks%" -T "GENRE=%genre%" -T "ALBUMARTIST=%albumartist%" -T "ALBUM ARTIST=%albumartist%" -T "COMMENT=EAC Secure Mode, Test & Copy, AccurateRip, FLAC -8" %source%
TOC of the extracted CD
Track | Start | Length | Start sector | End sector
---------------------------------------------------------
1 | 0:00.33 | 11:41.00 | 33 | 52607
2 | 11:41.33 | 5:27.30 | 52608 | 77162
3 | 17:08.63 | 3:10.42 | 77163 | 91454
4 | 20:19.30 | 7:30.58 | 91455 | 125262
5 | 27:50.13 | 7:26.12 | 125263 | 158724
6 | 35:16.25 | 3:11.65 | 158725 | 173114
7 | 38:28.15 | 9:05.23 | 173115 | 214012
8 | 47:33.38 | 1:03.30 | 214013 | 218767
9 | 48:36.68 | 7:13.30 | 218768 | 251272
10 | 55:50.23 | 4:45.22 | 251273 | 272669
11 | 60:35.45 | 5:31.15 | 272670 | 297509
12 | 66:06.60 | 3:48.33 | 297510 | 314642
13 | 69:55.18 | 5:13.15 | 314643 | 338132
Track 1
Filename G:\Musique Flac\Steve Lacy - Scratching The Seventies, Dreams (1996) [FLAC] {Saravah - SHL 2082}\Disc 1of3\01 - Three Pieces From Tao (Existence, The Way, Life On Its Way).wav
Pre-gap length 0:00:02.33
Peak level 98.3 %
Extraction speed 3.4 X
Track quality 100.0 %
Test CRC 71613C5D
Copy CRC 71613C5D
Accurately ripped (confidence 2) [99BB4779] (AR v1)
Copy OK
Track 2
Filename G:\Musique Flac\Steve Lacy - Scratching The Seventies, Dreams (1996) [FLAC] {Saravah - SHL 2082}\Disc 1of3\02 - The Highway.wav
Pre-gap length 0:00:02.00
Peak level 84.6 %
Extraction speed 3.6 X
Track quality 100.0 %
Test CRC F7B7E5F5
Copy CRC F7B7E5F5
Accurately ripped (confidence 2) [3786061B] (AR v1)
Copy OK
Track 3
Filename G:\Musique Flac\Steve Lacy - Scratching The Seventies, Dreams (1996) [FLAC] {Saravah - SHL 2082}\Disc 1of3\03 - The Cryptosphere.wav
Peak level 59.4 %
Extraction speed 2.8 X
Track quality 99.9 %
Test CRC 9D6E5D0E
Copy CRC 9D6E5D0E
Accurately ripped (confidence 2) [27ABBED7] (AR v1)
Copy OK
Track 4
Filename G:\Musique Flac\Steve Lacy - Scratching The Seventies, Dreams (1996) [FLAC] {Saravah - SHL 2082}\Disc 1of3\04 - Lapis.wav
Pre-gap length 0:00:01.00
Peak level 89.5 %
Extraction speed 4.1 X
Track quality 100.0 %
Test CRC 8D79036A
Copy CRC 8D79036A
Accurately ripped (confidence 2) [18679B57] (AR v1)
Copy OK
Track 5
Filename G:\Musique Flac\Steve Lacy - Scratching The Seventies, Dreams (1996) [FLAC] {Saravah - SHL 2082}\Disc 1of3\05 - The Precipitation Suite (I feel a draft, Cloudy, Rain).wav
Pre-gap length 0:00:01.25
Peak level 80.5 %
Extraction speed 3.9 X
Track quality 99.9 %
Test CRC 1249EB33
Copy CRC 1249EB33
Accurately ripped (confidence 2) [C34CC0D1] (AR v1)
Copy OK
Track 6
Filename G:\Musique Flac\Steve Lacy - Scratching The Seventies, Dreams (1996) [FLAC] {Saravah - SHL 2082}\Disc 1of3\06 - Paris Rip-Off.wav
Pre-gap length 0:00:01.00
Peak level 97.3 %
Extraction speed 3.3 X
Track quality 99.9 %
Test CRC E8072FB4
Copy CRC E8072FB4
Accurately ripped (confidence 2) [3364F4DD] (AR v1)
Copy OK
Track 7
Filename G:\Musique Flac\Steve Lacy - Scratching The Seventies, Dreams (1996) [FLAC] {Saravah - SHL 2082}\Disc 1of3\07 - Ladies.wav
Pre-gap length 0:00:02.00
Peak level 99.9 %
Extraction speed 4.9 X
Track quality 100.0 %
Test CRC 9D98946B
Copy CRC 9D98946B
Accurately ripped (confidence 2) [D23BAC89] (AR v1)
Copy OK
Track 8
Filename G:\Musique Flac\Steve Lacy - Scratching The Seventies, Dreams (1996) [FLAC] {Saravah - SHL 2082}\Disc 1of3\08 - Obituary.wav
Peak level 78.7 %
Extraction speed 2.1 X
Track quality 99.8 %
Test CRC 33DB3812
Copy CRC 33DB3812
Accurately ripped (confidence 2) [23487BA3] (AR v1)
Copy OK
Track 9
Filename G:\Musique Flac\Steve Lacy - Scratching The Seventies, Dreams (1996) [FLAC] {Saravah - SHL 2082}\Disc 1of3\09 - Scraps.wav
Pre-gap length 0:00:01.00
Peak level 99.9 %
Extraction speed 5.2 X
Track quality 100.0 %
Test CRC 642CB2A2
Copy CRC 642CB2A2
Accurately ripped (confidence 2) [079489A4] (AR v1)
Copy OK
Track 10
Filename G:\Musique Flac\Steve Lacy - Scratching The Seventies, Dreams (1996) [FLAC] {Saravah - SHL 2082}\Disc 1of3\10 - Name.wav
Peak level 97.8 %
Extraction speed 5.5 X
Track quality 100.0 %
Test CRC EE706F30
Copy CRC EE706F30
Accurately ripped (confidence 2) [E85C7C14] (AR v1)
Copy OK
Track 11
Filename G:\Musique Flac\Steve Lacy - Scratching The Seventies, Dreams (1996) [FLAC] {Saravah - SHL 2082}\Disc 1of3\11 - Torments.wav
Peak level 92.0 %
Extraction speed 5.4 X
Track quality 100.0 %
Test CRC 380F4A35
Copy CRC 380F4A35
Accurately ripped (confidence 2) [D9F60592] (AR v1)
Copy OK
Track 12
Filename G:\Musique Flac\Steve Lacy - Scratching The Seventies, Dreams (1996) [FLAC] {Saravah - SHL 2082}\Disc 1of3\12 - Pearl Street.wav
Peak level 99.9 %
Extraction speed 5.2 X
Track quality 100.0 %
Test CRC 6D1AC637
Copy CRC 6D1AC637
Accurately ripped (confidence 2) [30021AE0] (AR v1)
Copy OK
Track 13
Filename G:\Musique Flac\Steve Lacy - Scratching The Seventies, Dreams (1996) [FLAC] {Saravah - SHL 2082}\Disc 1of3\13 - The Wire.wav
Peak level 82.5 %
Extraction speed 5.6 X
Track quality 100.0 %
Test CRC C6DF55EA
Copy CRC C6DF55EA
Accurately ripped (confidence 2) [FAF7ADDD] (AR v1)
Copy OK
All tracks accurately ripped
No errors occurred
End of status report
==== Log checksum D99E3FAFDFAACEE785F521D115B3730F318144C41C074DC2EE9231BAF3546EBD ====
 
.cue
REM GENRE Jazz
REM DATE 1996
REM DISCID AF119C0D
REM COMMENT "ExactAudioCopy v1.0b3"
PERFORMER "Steve Lacy"
TITLE "Scratching the Seventies, Dreams"
FILE "01 - Three Pieces From Tao (Existence, The Way, Life On Its Way).wav" WAVE
TRACK 01 AUDIO
TITLE "Three Pieces From Tao (Existence, The Way, Life On Its Way)"
PERFORMER "Steve Lacy"
PREGAP 00:00:33
INDEX 01 00:00:00
INDEX 02 03:56:52
INDEX 03 07:13:70
TRACK 02 AUDIO
TITLE "The Highway"
PERFORMER "Steve Lacy"
INDEX 00 11:39:00
FILE "02 - The Highway.wav" WAVE
INDEX 01 00:00:00
FILE "03 - The Cryptosphere.wav" WAVE
TRACK 03 AUDIO
TITLE "The Cryptosphere"
PERFORMER "Steve Lacy"
INDEX 01 00:00:00
TRACK 04 AUDIO
TITLE "Lapis"
PERFORMER "Steve Lacy"
INDEX 00 03:09:42
FILE "04 - Lapis.wav" WAVE
INDEX 01 00:00:00
TRACK 05 AUDIO
TITLE "The Precipitation Suite (I feel a draft, Cloudy, Rain)"
PERFORMER "Steve Lacy"
INDEX 00 07:29:33
FILE "05 - The Precipitation Suite (I feel a draft, Cloudy, Rain).wav" WAVE
INDEX 01 00:00:00
INDEX 02 01:21:30
INDEX 03 03:47:52
TRACK 06 AUDIO
TITLE "Paris Rip-Off"
PERFORMER "Steve Lacy"
INDEX 00 07:25:12
FILE "06 - Paris Rip-Off.wav" WAVE
INDEX 01 00:00:00
TRACK 07 AUDIO
TITLE "Ladies"
PERFORMER "Steve Lacy"
INDEX 00 03:09:65
FILE "07 - Ladies.wav" WAVE
INDEX 01 00:00:00
FILE "08 - Obituary.wav" WAVE
TRACK 08 AUDIO
TITLE "Obituary"
PERFORMER "Steve Lacy"
INDEX 01 00:00:00
TRACK 09 AUDIO
TITLE "Scraps"
PERFORMER "Steve Lacy"
INDEX 00 01:02:30
FILE "09 - Scraps.wav" WAVE
INDEX 01 00:00:00
FILE "10 - Name.wav" WAVE
TRACK 10 AUDIO
TITLE "Name"
PERFORMER "Steve Lacy"
INDEX 01 00:00:00
FILE "11 - Torments.wav" WAVE
TRACK 11 AUDIO
TITLE "Torments"
PERFORMER "Steve Lacy"
INDEX 01 00:00:00
FILE "12 - Pearl Street.wav" WAVE
TRACK 12 AUDIO
TITLE "Pearl Street"
PERFORMER "Steve Lacy"
INDEX 01 00:00:00
FILE "13 - The Wire.wav" WAVE
TRACK 13 AUDIO
TITLE "The Wire"
PERFORMER "Steve Lacy"
INDEX 01 00:00:00
 
disc 2


disc 2

01 - The Uh Uh Uh
02 - Dreams
03 - The Oil
04 - The Wane
05 - Crops
06 - Roba (Part 1)

 
.log
Exact Audio Copy V1.0 beta 3 from 29. August 2011
EAC extraction logfile from 20. July 2013, 19:19
Steve Lacy / Scratching The Seventies, Dreams
Used drive : TSSTcorpCDDVDW SE-S084F Adapter: 3 ID: 0
Read mode : Secure
Utilize accurate stream : Yes
Defeat audio cache : Yes
Make use of C2 pointers : No
Read offset correction : 6
Overread into Lead-In and Lead-Out : No
Fill up missing offset samples with silence : Yes
Delete leading and trailing silent blocks : No
Null samples used in CRC calculations : Yes
Used interface : Native Win32 interface for Win NT & 2000
Gap handling : Appended to previous track
Used output format : User Defined Encoder
Selected bitrate : 1024 kBit/s
Quality : High
Add ID3 tag : No
Command line compressor : C:\Program Files (x86)\Exact Audio Copy\FLAC\FLAC.EXE
Additional command line options : -8 -V -T "ARTIST=%artist%" -T "TITLE=%title%" -T "ALBUM=%albumtitle%" -T "DATE=%year%" -T "TRACKNUMBER=%tracknr%" -T "TOTALTRACKS=%numtracks%" -T "GENRE=%genre%" -T "ALBUMARTIST=%albumartist%" -T "ALBUM ARTIST=%albumartist%" -T "COMMENT=EAC Secure Mode, Test & Copy, AccurateRip, FLAC -8" %source%
TOC of the extracted CD
Track | Start | Length | Start sector | End sector
---------------------------------------------------------
1 | 0:00.32 | 5:18.03 | 32 | 23884
2 | 5:18.35 | 3:07.42 | 23885 | 37951
3 | 8:26.02 | 7:06.70 | 37952 | 69971
4 | 15:32.72 | 9:59.65 | 69972 | 114961
5 | 25:32.62 | 11:03.00 | 114962 | 164686
6 | 36:35.62 | 19:27.45 | 164687 | 252256
Track 1
Filename G:\Musique Flac\Steve Lacy - Scratching The Seventies, Dreams (1996) [FLAC] {Saravah - SHL 2082}\Disc 2of3\01 - The Uh Uh Uh.wav
Pre-gap length 0:00:02.32
Peak level 98.9 %
Extraction speed 2.2 X
Track quality 99.9 %
Test CRC C53C6060
Copy CRC C53C6060
Accurately ripped (confidence 2) [64279A17] (AR v1)
Copy OK
Track 2
Filename G:\Musique Flac\Steve Lacy - Scratching The Seventies, Dreams (1996) [FLAC] {Saravah - SHL 2082}\Disc 2of3\02 - Dreams.wav
Peak level 85.6 %
Extraction speed 2.0 X
Track quality 99.9 %
Test CRC 28B60BEE
Copy CRC 28B60BEE
Accurately ripped (confidence 2) [FAFE4EAD] (AR v1)
Copy OK
Track 3
Filename G:\Musique Flac\Steve Lacy - Scratching The Seventies, Dreams (1996) [FLAC] {Saravah - SHL 2082}\Disc 2of3\03 - The Oil.wav
Pre-gap length 0:00:01.00
Peak level 99.9 %
Extraction speed 2.6 X
Track quality 99.9 %
Test CRC 86DD51C8
Copy CRC 86DD51C8
Accurately ripped (confidence 2) [B485766C] (AR v1)
Copy OK
Track 4
Filename G:\Musique Flac\Steve Lacy - Scratching The Seventies, Dreams (1996) [FLAC] {Saravah - SHL 2082}\Disc 2of3\04 - The Wane.wav
Pre-gap length 0:00:01.00
Peak level 95.9 %
Extraction speed 3.7 X
Track quality 100.0 %
Test CRC FB263518
Copy CRC FB263518
Accurately ripped (confidence 2) [1D157C92] (AR v1)
Copy OK
Track 5
Filename G:\Musique Flac\Steve Lacy - Scratching The Seventies, Dreams (1996) [FLAC] {Saravah - SHL 2082}\Disc 2of3\05 - Crops.wav
Pre-gap length 0:00:02.00
Peak level 99.9 %
Extraction speed 3.6 X
Track quality 99.9 %
Test CRC FAA477E5
Copy CRC FAA477E5
Accurately ripped (confidence 2) [8BEF8094] (AR v1)
Copy OK
Track 6
Filename G:\Musique Flac\Steve Lacy - Scratching The Seventies, Dreams (1996) [FLAC] {Saravah - SHL 2082}\Disc 2of3\06 - Roba (Part 1).wav
Pre-gap length 0:00:02.00
Peak level 99.8 %
Extraction speed 4.6 X
Track quality 100.0 %
Test CRC 173F9BDD
Copy CRC 173F9BDD
Accurately ripped (confidence 2) [46494BD7] (AR v1)
Copy OK
All tracks accurately ripped
No errors occurred
End of status report
==== Log checksum 6E6C6066C4229F964AE14B3218E96E3ED4FCEECA32A197105078F231EC88A636 ====
 
.cue
REM DISCID 440D2306
REM COMMENT "ExactAudioCopy v1.0b3"
PERFORMER "Steve Lacy"
TITLE "Scratching The Seventies, Dreams"
FILE "01 - The Uh Uh Uh.wav" WAVE
TRACK 01 AUDIO
TITLE "The Uh Uh Uh"
PERFORMER "Steve Lacy"
PREGAP 00:00:32
INDEX 01 00:00:00
FILE "02 - Dreams.wav" WAVE
TRACK 02 AUDIO
TITLE "Dreams"
PERFORMER "Steve Lacy"
INDEX 01 00:00:00
TRACK 03 AUDIO
TITLE "The Oil"
PERFORMER "Steve Lacy"
INDEX 00 03:06:42
FILE "03 - The Oil.wav" WAVE
INDEX 01 00:00:00
TRACK 04 AUDIO
TITLE "The Wane"
PERFORMER "Steve Lacy"
INDEX 00 07:05:70
FILE "04 - The Wane.wav" WAVE
INDEX 01 00:00:00
TRACK 05 AUDIO
TITLE "Crops"
PERFORMER "Steve Lacy"
INDEX 00 09:57:65
FILE "05 - Crops.wav" WAVE
INDEX 01 00:00:00
TRACK 06 AUDIO
TITLE "Roba (Part 1)"
PERFORMER "Steve Lacy"
INDEX 00 11:01:00
FILE "06 - Roba (Part 1).wav" WAVE
INDEX 01 00:00:00
 
disc 3


disc 3

01 - Somebody Special
02 - Blinks
03 - The Owl
04 - Wish
05 - Spell
06 - Lesson
07 - Notre Vie
08 - Roba (Part 2)

 
.log
Exact Audio Copy V1.0 beta 3 from 29. August 2011
EAC extraction logfile from 20. July 2013, 20:58
Steve Lacy / Scratching the Seventies, Dreams
Used drive : TSSTcorpCDDVDW SE-S084F Adapter: 3 ID: 0
Read mode : Secure
Utilize accurate stream : Yes
Defeat audio cache : Yes
Make use of C2 pointers : No
Read offset correction : 6
Overread into Lead-In and Lead-Out : No
Fill up missing offset samples with silence : Yes
Delete leading and trailing silent blocks : No
Null samples used in CRC calculations : Yes
Used interface : Native Win32 interface for Win NT & 2000
Gap handling : Appended to previous track
Used output format : User Defined Encoder
Selected bitrate : 1024 kBit/s
Quality : High
Add ID3 tag : No
Command line compressor : C:\Program Files (x86)\Exact Audio Copy\FLAC\FLAC.EXE
Additional command line options : -8 -V -T "ARTIST=%artist%" -T "TITLE=%title%" -T "ALBUM=%albumtitle%" -T "DATE=%year%" -T "TRACKNUMBER=%tracknr%" -T "TOTALTRACKS=%numtracks%" -T "GENRE=%genre%" -T "ALBUMARTIST=%albumartist%" -T "ALBUM ARTIST=%albumartist%" -T "COMMENT=EAC Secure Mode, Test & Copy, AccurateRip, FLAC -8" %source%
TOC of the extracted CD
Track | Start | Length | Start sector | End sector
---------------------------------------------------------
1 | 0:00.32 | 6:52.55 | 32 | 30986
2 | 6:53.12 | 7:26.43 | 30987 | 64479
3 | 14:19.55 | 5:29.05 | 64480 | 89159
4 | 19:48.60 | 5:53.02 | 89160 | 115636
5 | 25:41.62 | 3:40.15 | 115637 | 132151
6 | 29:22.02 | 8:08.15 | 132152 | 168766
7 | 37:30.17 | 4:28.68 | 168767 | 188934
8 | 41:59.10 | 22:03.22 | 188935 | 288181
Track 1
Filename G:\Musique Flac\Steve Lacy - Scratching The Seventies, Dreams (1996) [FLAC] {Saravah - SHL 2082}\Disc 3of3\01 - Somebody Special.wav
Pre-gap length 0:00:02.32
Peak level 99.5 %
Extraction speed 2.8 X
Track quality 100.0 %
Test CRC 0EAEBC7C
Copy CRC 0EAEBC7C
Accurately ripped (confidence 2) [29B6E086] (AR v1)
Copy OK
Track 2
Filename G:\Musique Flac\Steve Lacy - Scratching The Seventies, Dreams (1996) [FLAC] {Saravah - SHL 2082}\Disc 3of3\02 - Blinks.wav
Pre-gap length 0:00:01.00
Peak level 99.4 %
Extraction speed 3.4 X
Track quality 100.0 %
Test CRC A0350825
Copy CRC A0350825
Accurately ripped (confidence 2) [F9FD8A7E] (AR v1)
Copy OK
Track 3
Filename G:\Musique Flac\Steve Lacy - Scratching The Seventies, Dreams (1996) [FLAC] {Saravah - SHL 2082}\Disc 3of3\03 - The Owl.wav
Pre-gap length 0:00:01.00
Peak level 99.9 %
Extraction speed 3.5 X
Track quality 100.0 %
Test CRC BD74D6D0
Copy CRC BD74D6D0
Accurately ripped (confidence 2) [9AA3B4DA] (AR v1)
Copy OK
Track 4
Filename G:\Musique Flac\Steve Lacy - Scratching The Seventies, Dreams (1996) [FLAC] {Saravah - SHL 2082}\Disc 3of3\04 - Wish.wav
Pre-gap length 0:00:01.00
Peak level 90.1 %
Extraction speed 3.7 X
Track quality 100.0 %
Test CRC 4B5409CE
Copy CRC 4B5409CE
Accurately ripped (confidence 2) [D682B086] (AR v1)
Copy OK
Track 5
Filename G:\Musique Flac\Steve Lacy - Scratching The Seventies, Dreams (1996) [FLAC] {Saravah - SHL 2082}\Disc 3of3\05 - Spell.wav
Peak level 85.9 %
Extraction speed 3.7 X
Track quality 100.0 %
Test CRC F868BA37
Copy CRC F868BA37
Accurately ripped (confidence 2) [A46A2CBB] (AR v1)
Copy OK
Track 6
Filename G:\Musique Flac\Steve Lacy - Scratching The Seventies, Dreams (1996) [FLAC] {Saravah - SHL 2082}\Disc 3of3\06 - Lesson.wav
Pre-gap length 0:00:01.00
Peak level 97.9 %
Extraction speed 4.1 X
Track quality 100.0 %
Test CRC B9D6840F
Copy CRC B9D6840F
Accurately ripped (confidence 2) [351FCFF4] (AR v1)
Copy OK
Track 7
Filename G:\Musique Flac\Steve Lacy - Scratching The Seventies, Dreams (1996) [FLAC] {Saravah - SHL 2082}\Disc 3of3\07 - Notre Vie.wav
Peak level 85.5 %
Extraction speed 3.3 X
Track quality 99.9 %
Test CRC E9E40A38
Copy CRC E9E40A38
Accurately ripped (confidence 2) [EAE249C5] (AR v1)
Copy OK
Track 8
Filename G:\Musique Flac\Steve Lacy - Scratching The Seventies, Dreams (1996) [FLAC] {Saravah - SHL 2082}\Disc 3of3\08 - Roba (Part 2).wav
Pre-gap length 0:00:01.00
Peak level 99.8 %
Extraction speed 4.4 X
Track quality 100.0 %
Test CRC B25F04B4
Copy CRC B25F04B4
Track not present in AccurateRip database
Copy OK
7 track(s) accurately ripped
1 track(s) not present in the AccurateRip database
Some tracks could not be verified as accurate
No errors occurred
End of status report
==== Log checksum F85CBBC883271743D8407962AABFB2E441E1EA00A0D42144A31807472D4F0FCB ====
 
.cue
REM GENRE Jazz
REM DATE 1996
REM DISCID 5A0F0208
REM COMMENT "ExactAudioCopy v1.0b3"
PERFORMER "Steve Lacy"
TITLE "Scratching the Seventies, Dreams"
FILE "01 - Somebody Special.wav" WAVE
TRACK 01 AUDIO
TITLE "Somebody Special"
PERFORMER "Steve Lacy"
PREGAP 00:00:32
INDEX 01 00:00:00
TRACK 02 AUDIO
TITLE "Blinks"
PERFORMER "Steve Lacy"
INDEX 00 06:51:55
FILE "02 - Blinks.wav" WAVE
INDEX 01 00:00:00
TRACK 03 AUDIO
TITLE "The Owl"
PERFORMER "Steve Lacy"
INDEX 00 07:25:43
FILE "03 - The Owl.wav" WAVE
INDEX 01 00:00:00
TRACK 04 AUDIO
TITLE "Wish"
PERFORMER "Steve Lacy"
INDEX 00 05:28:05
FILE "04 - Wish.wav" WAVE
INDEX 01 00:00:00
FILE "05 - Spell.wav" WAVE
TRACK 05 AUDIO
TITLE "Spell"
PERFORMER "Steve Lacy"
INDEX 01 00:00:00
TRACK 06 AUDIO
TITLE "Lesson"
PERFORMER "Steve Lacy"
INDEX 00 03:39:15
FILE "06 - Lesson.wav" WAVE
INDEX 01 00:00:00
FILE "07 - Notre Vie.wav" WAVE
TRACK 07 AUDIO
TITLE "Notre Vie"
PERFORMER "Steve Lacy"
INDEX 01 00:00:00
TRACK 08 AUDIO
TITLE "Roba (Part 2)"
PERFORMER "Steve Lacy"
INDEX 00 04:27:68
FILE "08 - Roba (Part 2).wav" WAVE
INDEX 01 00:00:00
http://www.allmusic.com/album/scratching-the-seventies-dreams-mw0001024980
другие релизы
По всем вопросам пишите личное сообщение пользователю M0p94ok.
19:33
355
Нет комментариев. Ваш будет первым!