Поиск

(Free Jazz, Avant-Garde) [CD] Wadada Leo Smith & John Lindberg - Celestial Weather - 2015, FLAC (tracks+.cue), lossless

(Free Jazz, Avant-Garde) [CD] Wadada Leo Smith & John Lindberg - Celestial Weather - 2015, FLAC (tracks+.cue), lossless
Треклист:
WADADA LEO SMITH & JOHN LINDBERG ' ' ' ' ' ' ' ' ' ' ' ' ' ' ' ' ' ' ' ' ' ' ' ' ' ' ' ' ' ' ' ' ' ' CELESTIAL WEATHER

Жанр: Free Jazz, Avant-Garde
Страна-производитель диска: EU (Finland)
Год издания: 2015
Издатель (лейбл): TUM Records
Номер по каталогу: 046
Страна исполнителя (группы): USA
Аудиокодек: FLAC (*.flac)
Тип рипа: tracks+.cue
Битрейт аудио: lossless
Продолжительность: 62:23
Источник (релизер): спасибо flavius
Наличие сканов: да
Треклист:
Malachi Favors Maghostut - A Monarch of Creative Music
01 Part I
02 Part II
Celestial Weather Suite
03 Cyclone 7
04 Hurricane
05 Icy Fog
06 Typhoon
07 Tornado
Feathers and Earth
08 Part I
09 Part II
 
Лог создания рипа
Exact Audio Copy V1.0 beta 4 from 7. December 2014
EAC extraction logfile from 25. December 2015, 14:33
Wadada Leo Smith / John Lindberg / Celestial Weather
Used drive : PLEXTOR DVDR PX-891SAW Adapter: 0 ID: 0
Read mode : Secure
Utilize accurate stream : Yes
Defeat audio cache : Yes
Make use of C2 pointers : No
Read offset correction : 48
Overread into Lead-In and Lead-Out : No
Fill up missing offset samples with silence : Yes
Delete leading and trailing silent blocks : No
Null samples used in CRC calculations : Yes
Used interface : Installed external ASPI interface
Gap handling : Appended to previous track
Used output format : User Defined Encoder
Selected bitrate : 1024 kBit/s
Quality : High
Add ID3 tag : No
Command line compressor : C:\Program Files\eac-1.0beta4\Flac\flac.exe
Additional command line options : -8 -V -T "ARTIST=%artist%" -T "TITLE=%title%" -T "ALBUM=%albumtitle%" -T "DATE=%year%" -T "TRACKNUMBER=%tracknr%" -T "GENRE=%genre%" -T "PERFORMER=%albuminterpret%" -T "COMPOSER=%composer%" %haslyrics%--tag-from-file=LYRICS="%lyricsfile%"%haslyrics% -T "ALBUMARTIST=%albumartist%" -T "ALBUM ARTIST=%albumartist%" -T "DISCNUMBER=%cdnumber%" -T "TOTALDISCS=%totalcds%" -T "TOTALTRACKS=%numtracks%" -T "COMMENT=ivo" %source% -o %dest%
TOC of the extracted CD
Track | Start | Length | Start sector | End sector
---------------------------------------------------------
1 | 0:00.00 | 7:14.68 | 0 | 32617
2 | 7:14.68 | 9:53.21 | 32618 | 77113
3 | 17:08.14 | 5:31.07 | 77114 | 101945
4 | 22:39.21 | 7:24.18 | 101946 | 135263
5 | 30:03.39 | 8:24.61 | 135264 | 173124
6 | 38:28.25 | 3:35.73 | 173125 | 189322
7 | 42:04.23 | 9:22.53 | 189323 | 231525
8 | 51:27.01 | 7:16.50 | 231526 | 264275
9 | 58:43.51 | 4:05.38 | 264276 | 282688
Track 1
Filename F:\igor\eac\01 - Malachi Favors Maghostut - A Monarch of Creative Music - Part I.wav
Pre-gap length 0:00:02.00
Peak level 73.7 %
Extraction speed 4.2 X
Track quality 99.9 %
Test CRC 6A12EDD8
Copy CRC 6A12EDD8
Track not present in AccurateRip database
Copy OK
Track 2
Filename F:\igor\eac\02 - Malachi Favors Maghostut - A Monarch of Creative Music - Part II.wav
Peak level 90.5 %
Extraction speed 5.4 X
Track quality 99.9 %
Test CRC 0E80B16E
Copy CRC 0E80B16E
Track not present in AccurateRip database
Copy OK
Track 3
Filename F:\igor\eac\03 - Celestial Weather Suite - Cyclone.wav
Pre-gap length 0:00:03.69
Peak level 75.4 %
Extraction speed 6.8 X
Track quality 100.0 %
Test CRC FF801C6B
Copy CRC FF801C6B
Track not present in AccurateRip database
Copy OK
Track 4
Filename F:\igor\eac\04 - Celestial Weather Suite - Hurricane.wav
Pre-gap length 0:00:04.05
Peak level 91.5 %
Extraction speed 6.0 X
Track quality 99.9 %
Test CRC 6D06BA2B
Copy CRC 6D06BA2B
Track not present in AccurateRip database
Copy OK
Track 5
Filename F:\igor\eac\05 - Celestial Weather Suite - Icy Fog.wav
Pre-gap length 0:00:04.16
Peak level 97.7 %
Extraction speed 8.2 X
Track quality 100.0 %
Test CRC 579B5329
Copy CRC 579B5329
Track not present in AccurateRip database
Copy OK
Track 6
Filename F:\igor\eac\06 - Celestial Weather Suite - Typhoon.wav
Pre-gap length 0:00:04.92
Peak level 23.1 %
Extraction speed 7.9 X
Track quality 100.0 %
Test CRC 7165F508
Copy CRC 7165F508
Track not present in AccurateRip database
Copy OK
Track 7
Filename F:\igor\eac\07 - Celestial Weather Suite - Tornado.wav
Pre-gap length 0:00:04.72
Peak level 54.1 %
Extraction speed 7.5 X
Track quality 99.9 %
Test CRC 0D714CED
Copy CRC 0D714CED
Track not present in AccurateRip database
Copy OK
Track 8
Filename F:\igor\eac\08 - Feathers and Earth - Part I.wav
Pre-gap length 0:00:02.60
Peak level 42.5 %
Extraction speed 9.4 X
Track quality 100.0 %
Test CRC 3BE6F3E1
Copy CRC 3BE6F3E1
Track not present in AccurateRip database
Copy OK
Track 9
Filename F:\igor\eac\09 - Feathers and Earth - Part II.wav
Pre-gap length 0:00:01.58
Peak level 97.7 %
Extraction speed 9.2 X
Track quality 100.0 %
Test CRC 94C30A81
Copy CRC 94C30A81
Track not present in AccurateRip database
Copy OK
None of the tracks are present in the AccurateRip database
No errors occurred
End of status report
---- CUETools DB Plugin V2.1.4
[CTDB TOCID: .R5NQojANUqu6ts8mQQ3cqUkpaE-] disk not present in database
Submit result: .R5NQojANUqu6ts8mQQ3cqUkpaE- has been uploaded
==== Log checksum 96E82895B7A5B0167F374B6702C1AFA2D0EA67FA00C25E83A4E19C9548006048 ====
 
Содержание индексной карты (.CUE)
REM GENRE "TUM 046"
REM DATE 2015
REM DISCID 640EB909
REM COMMENT "ExactAudioCopy v1.0b4"
PERFORMER "Wadada Leo Smith / John Lindberg"
TITLE "Celestial Weather"
FILE "01 - Malachi Favors Maghostut - A Monarch of Creative Music - Part I.wav" WAVE
TRACK 01 AUDIO
TITLE "Malachi Favors Maghostut - A Monarch of Creative Music: Part I"
PERFORMER "Wadada Leo Smith / John Lindberg"
INDEX 01 00:00:00
FILE "02 - Malachi Favors Maghostut - A Monarch of Creative Music - Part II.wav" WAVE
TRACK 02 AUDIO
TITLE "Malachi Favors Maghostut - A Monarch of Creative Music: Part II"
PERFORMER "Wadada Leo Smith / John Lindberg"
INDEX 01 00:00:00
TRACK 03 AUDIO
TITLE "Celestial Weather Suite: Cyclone"
PERFORMER "Wadada Leo Smith / John Lindberg"
INDEX 00 09:49:44
FILE "03 - Celestial Weather Suite - Cyclone.wav" WAVE
INDEX 01 00:00:00
TRACK 04 AUDIO
TITLE "Celestial Weather Suite: Hurricane"
PERFORMER "Wadada Leo Smith / John Lindberg"
INDEX 00 05:27:03
FILE "04 - Celestial Weather Suite - Hurricane.wav" WAVE
INDEX 01 00:00:00
TRACK 05 AUDIO
TITLE "Celestial Weather Suite: Icy Fog"
PERFORMER "Wadada Leo Smith / John Lindberg"
INDEX 00 07:20:06
FILE "05 - Celestial Weather Suite - Icy Fog.wav" WAVE
INDEX 01 00:00:00
TRACK 06 AUDIO
TITLE "Celestial Weather Suite: Typhoon"
PERFORMER "Wadada Leo Smith / John Lindberg"
INDEX 00 08:19:67
FILE "06 - Celestial Weather Suite - Typhoon.wav" WAVE
INDEX 01 00:00:00
TRACK 07 AUDIO
TITLE "Celestial Weather Suite: Tornado"
PERFORMER "Wadada Leo Smith / John Lindberg"
INDEX 00 03:31:19
FILE "07 - Celestial Weather Suite - Tornado.wav" WAVE
INDEX 01 00:00:00
TRACK 08 AUDIO
TITLE "Feathers and Earth: Part I"
PERFORMER "Wadada Leo Smith / John Lindberg"
INDEX 00 09:20:08
FILE "08 - Feathers and Earth - Part I.wav" WAVE
INDEX 01 00:00:00
TRACK 09 AUDIO
TITLE "Feathers and Earth: Part II"
PERFORMER "Wadada Leo Smith / John Lindberg"
INDEX 00 07:15:06
FILE "09 - Feathers and Earth - Part II.wav" WAVE
INDEX 01 00:00:00
 
Об альбоме
A duo album from Wadada Leo Smith and John Lindberg has been a long time coming. The trumpeter and bassist have collaborated on dozens of albums, beginning with recordings under Braxton’s direction, and continuing through to recent albums with Smith’s Great Lakes Quartet, Golden Quartet and Quintet, and Organic ensembles. Sprinkled between these bigger ensemble recordings, Smith has put together an impressive string of duo albums, in trumpet-drums and trumpet-piano settings. And we were really due for an album like Celestial Weather from these two giants.
The album’s divided into three sections: “Malachi Favors Maghostut - A Monarch of Creative Music (Parts 1 & 2)”, “Celestial Weather Suite (Cyclone / Hurricane / Icy Fog / Typhoon / Tornado)”, and “Feathers and Earth (Parts 1 & 2).” The first section is credited to Smith, the last to Lindberg, and the centerpiece improvisation is credited to both. Let me put it out there right away, this is a truly beautiful album.
Smith and Lindberg have played together for decades, and they each freely lead and follow, in equal measure. As I recall, it’s Lindberg you hear first on Smith’s seminal Ten Freedom Summers album. That’s how integral they are to one each other’s work. The rich balance of sound produced is truly collaborative, and the two friends prompt each other through a duet pushes each into the further ranges of their instruments.
The Smith-composed tribute, “Malachi Favors Maghostut,” is presented in two parts. The opening of the first part finds Smith and Lindberg almost sliding into place. Smith plays an opening melody I’d love to hear in a Golden Quartet setting sometime. Here, without the drums and piano, Lindberg carries the rhythm of the piece forward to its improvised center. I want to say this almost feels like a nostalgia-tinged celebration of the late bassist, the playing from both is lively, with a punching, Lester Bowie-esque solo from Smith. “Part 2” opens in an elegiac mode, with a brief solo from Lindberg leading to Smith playing a solemn ode in clear tones. The bass lines subtly recall Favors’s little-heard solo album, The Natural and the Spiritual, with Lindberg walking along behind Smith, transitioning to the piece’s urgent final section. Lindberg plays a lovely bowed sequence, improvising around a recurring motif, and takes another solo turn, until Smith returns and both push themselves high into the upper range of each instrument. Lindberg closes the tune with three strident, bowed notes, representing each of Favors’s names, or perhaps each of the musicians, or something else entirely.
But, oh!, the “Celestial Weather Suite” is a free improvisatory masterpiece.
“Hurricane” comes to a still center with Lindberg taking a relatively calm solo. After about a minute, he brings Smith back into the maelstrom, urging him into a crisp duet. The brief interplay leads to a Smith solo turn. An angular duet follows, with the two playing contrasting lines, Smith again high and clear, Lindberg displaying a light touch with a staccato bowed run that transforms into a buzzing wind. This is followed by “Icy Flow,” a plaintive blast of a piece. Lindberg plays a searching, chilly solo, before Smith joins him on muted trumpet. The tone of the title is acutely rendered here, with Smith’s lines maintaining the mood throughout.
On “Typhoon,” Smith is again on muted trumpet, this time gently moving through a bright, high line that closes on a muted variation on his typical high blast. The result is unexpected, leaving the listener near but not quite on a precipice. The duo barely pauses before “Tornado,” which, true to its name, is a whirling dervish of improvisation. Lindberg bows a yearning run, circling around a motif for a couple of minutes before changing over to a quick, urgent movement that takes center stage for a brief moment. Smith gives Lindberg a mellow backing, before bowing out for a brief bass solo. When he comes back, his trademark piercing sound centers the listener again. It’s like a beacon in any Smith recording, a flare sent out that says, “Here I am, just follow me.”
“Feathers and Earth” is split into two parts, which according to Lindberg represent the raptors and the earth itself. It’s the briefest composition of the album, clocking in at around 10 minutes total. “Part 1” floats appropriately, considering it’s the raptor tribute. Lindberg, in particular, provides an improvisatory interpretation of wind, sky, sun, and flight. About halfway, he and Smith intertwine their lines in a kind of upward spiral that finally drifts down into some of the lowest registers on the album. “Part 2” blasts the contemplative mood of “Part 1” wide open. Smith and Lindberg each play a modified echo of the striding melody, then transition into a fierce duet that proceeds unbroken for a couple of minutes before abruptly ending on Smith’s final, unaccompanied notes.
5/5 stars
(Lee Rice Epstein, freejazzblog.org)
 
Состав

Wadada Leo Smith - trumpet, compositions (1-7)
John Lindberg - double bass, compositions (3-9)
По всем вопросам пишите личное сообщение пользователю M0p94ok.
19:33
241
Нет комментариев. Ваш будет первым!