Вы используете незарегистрированную версию компонента "Вкладки"!

Поиск

(Avant-Garde Jazz, Free Jazz) [CD] John Coltrane - Meditations (1965) - 2009, FLAC (tracks+.cue), lossless

(Avant-Garde Jazz, Free Jazz) [CD] John Coltrane - Meditations (1965) - 2009, FLAC (tracks+.cue), lossless
Треклист:
John Coltrane - Meditations (1965) Жанр: Avant-Garde Jazz, Free Jazz
Носитель: CD
Год издания: 2009
Издатель (лейбл): Impulse!/UMG/Verve Originals Series
Номер по каталогу: 0602517920378
Аудиокодек: FLAC (*.flac)
Тип рипа: tracks+.cue
Битрейт аудио: lossless
Продолжительность: 40:32
Rip by ruskaval
Наличие сканов в содержимом раздачи: да
Треклист:
01. The Father And The Son And The Holy Ghost (12:51)
02. Compassion (6:49)
03. Love (8:09)
04. Consequences (9:13)
05. Serenity (3:29)
Personnel:
John Coltrane - ts, perc
Pharoah Sanders - ts, perc
McCoy Tyner - p
Jimmy Garrison - b
Elvin Jones - d
Rashied Ali - d
 
 
Лог создания рипа
Exact Audio Copy V1.1 from 23. June 2015
EAC extraction logfile from 30. March 2016, 21:42
John Coltrane / Meditations
Used drive : TSSTcorpCDDVDW SE-208DB Adapter: 1 ID: 0
Read mode : Secure
Utilize accurate stream : Yes
Defeat audio cache : Yes
Make use of C2 pointers : No
Read offset correction : 6
Overread into Lead-In and Lead-Out : No
Fill up missing offset samples with silence : Yes
Delete leading and trailing silent blocks : No
Null samples used in CRC calculations : Yes
Used interface : Native Win32 interface for Win NT & 2000
Gap handling : Appended to previous track
Used output format : User Defined Encoder
Selected bitrate : 1024 kBit/s
Quality : High
Add ID3 tag : No
Command line compressor : C:\Program Files (x86)\FLAC Frontend\tools\flac.exe
Additional command line options : -8 -V -T "ARTIST=%artist%" -T "TITLE=%title%" -T "ALBUM=%albumtitle%" -T "DATE=%year%" -T "TRACKNUMBER=%tracknr%" -T "TOTALTRACKS=%numtracks%" -T "GENRE=%genre%" -T "ALBUMARTIST=%albumartist%" -T "ALBUM ARTIST=%albumartist%" -T "COMMENT=EAC Secure Mode, Test & Copy, AccurateRip, FLAC -8" %source%
TOC of the extracted CD
Track | Start | Length | Start sector | End sector
---------------------------------------------------------
1 | 0:00.00 | 12:51.24 | 0 | 57848
2 | 12:51.24 | 6:49.37 | 57849 | 88560
3 | 19:40.61 | 8:09.33 | 88561 | 125268
4 | 27:50.19 | 9:12.49 | 125269 | 166717
5 | 37:02.68 | 3:29.07 | 166718 | 182399
Track 1
Filename D:\_EAC\John Coltrane - Meditations (1965) [FLAC] {Impulse!-Verve Originals rel 2009}\01 - The Father And The Son And The Holy Ghost.wav
Pre-gap length 0:00:02.00
Peak level 93.3 %
Extraction speed 1.2 X
Track quality 100.0 %
Test CRC B82D9C9C
Copy CRC B82D9C9C
Accurately ripped (confidence 41) [72B13BD8] (AR v2)
Copy OK
Track 2
Filename D:\_EAC\John Coltrane - Meditations (1965) [FLAC] {Impulse!-Verve Originals rel 2009}\02 - Compassion.wav
Peak level 93.3 %
Extraction speed 1.4 X
Track quality 100.0 %
Test CRC 710C7E89
Copy CRC 710C7E89
Accurately ripped (confidence 41) [98EABF1F] (AR v2)
Copy OK
Track 3
Filename D:\_EAC\John Coltrane - Meditations (1965) [FLAC] {Impulse!-Verve Originals rel 2009}\03 - Love.wav
Peak level 93.3 %
Extraction speed 1.6 X
Track quality 100.0 %
Test CRC 22E9A8A9
Copy CRC 22E9A8A9
Accurately ripped (confidence 40) [E5C3A2A8] (AR v2)
Copy OK
Track 4
Filename D:\_EAC\John Coltrane - Meditations (1965) [FLAC] {Impulse!-Verve Originals rel 2009}\04 - Consequences.wav
Peak level 93.3 %
Extraction speed 1.7 X
Track quality 100.0 %
Test CRC 0E9E1DC6
Copy CRC 0E9E1DC6
Accurately ripped (confidence 40) [2E7BCD9C] (AR v2)
Copy OK
Track 5
Filename D:\_EAC\John Coltrane - Meditations (1965) [FLAC] {Impulse!-Verve Originals rel 2009}\05 - Serenity.wav
Peak level 93.3 %
Extraction speed 1.6 X
Track quality 100.0 %
Test CRC FC699468
Copy CRC FC699468
Accurately ripped (confidence 41) [F33051DB] (AR v2)
Copy OK
All tracks accurately ripped
No errors occurred
End of status report
==== Log checksum 4B74C9FDBC7326AD116528CFA379CB34281A559D4036F49F5667B5BC328EFB65 ====
 
Содержание индексной карты (.CUE)
REM GENRE Jazz
REM DATE 1965
REM DISCID 39098005
REM COMMENT "ExactAudioCopy v1.1"
PERFORMER "John Coltrane"
TITLE "Meditations"
FILE "01 - The Father And The Son And The Holy Ghost.wav" WAVE
TRACK 01 AUDIO
TITLE "The Father And The Son And The Holy Ghost"
PERFORMER "John Coltrane"
INDEX 01 00:00:00
FILE "02 - Compassion.wav" WAVE
TRACK 02 AUDIO
TITLE "Compassion"
PERFORMER "John Coltrane"
INDEX 01 00:00:00
FILE "03 - Love.wav" WAVE
TRACK 03 AUDIO
TITLE "Love"
PERFORMER "John Coltrane"
INDEX 01 00:00:00
FILE "04 - Consequences.wav" WAVE
TRACK 04 AUDIO
TITLE "Consequences"
PERFORMER "John Coltrane"
INDEX 01 00:00:00
FILE "05 - Serenity.wav" WAVE
TRACK 05 AUDIO
TITLE "Serenity"
PERFORMER "John Coltrane"
INDEX 01 00:00:00
По всем вопросам пишите личное сообщение пользователю M0p94ok.
19:32
238
Нет комментариев. Ваш будет первым!