Вы используете незарегистрированную версию компонента "Вкладки"!

Поиск

(Free Jazz, Post Bop) [CD] Esa Pietila, Ulf Krokfors, Markku Ounaskari - Travel Of Fulica Atra - 2007, FLAC (image+.cue), lossless

(Free Jazz, Post Bop) [CD] Esa Pietila, Ulf Krokfors, Markku Ounaskari - Travel Of Fulica Atra - 2007, FLAC (image+.cue), lossless
Треклист:
Esa Pietilä, Uffe Krokfors, Markku Ounaskari / Travel Of Fulica Atra
Жанр: Free Jazz, Post Bop
Носитель: CD
Страна-производитель диска: Finland
Год издания: 2007
Издатель (лейбл): Fiasko Records
Номер по каталогу: FRCD-31
Аудиокодек: FLAC (*.flac)
Тип рипа: image+.cue
Битрейт аудио: lossless
Продолжительность: 60:09
Источник (релизер): CD
Наличие сканов в содержимом раздачи: нет
Треклист:
1 Fulica Atra 7:59
2 Summer 5:25
3 Free The Bird 3:46
4 Forget Gravity 10:15
5 Radar (In The Night) 4:37
6 New Morning 5:28
7 The Pond 3:25
8 Frozen Cascades 5:54
9 Extremes Waves 4:31
10 Tonal-A 4:23
11 Lacus Securus 4:23
 
Лог создания рипа
Exact Audio Copy V1.0 beta 2 from 29. April 2011
EAC extraction logfile from 17. July 2014, 12:31
Esa Pietila Trio / Travel Of Fulica Atra
Used drive : Optiarc DVD RW AD-7170A Adapter: 0 ID: 0
Read mode : Secure
Utilize accurate stream : Yes
Defeat audio cache : Yes
Make use of C2 pointers : No
Read offset correction : 48
Overread into Lead-In and Lead-Out : No
Fill up missing offset samples with silence : Yes
Delete leading and trailing silent blocks : No
Null samples used in CRC calculations : Yes
Used interface : Native Win32 interface for Win NT & 2000
Used output format : User Defined Encoder
Selected bitrate : 320 kBit/s
Quality : High
Add ID3 tag : No
Command line compressor : C:\Program Files\Exact Audio Copy\Flac\flac.exe
Additional command line options : -V -8 -T "Date=%year%" -T "Genre=%genre%" %source%
TOC of the extracted CD
Track | Start | Length | Start sector | End sector
---------------------------------------------------------
1 | 0:00.00 | 7:59.47 | 0 | 35971
2 | 7:59.47 | 5:25.58 | 35972 | 60404
3 | 13:25.30 | 3:46.70 | 60405 | 77424
4 | 17:12.25 | 10:15.58 | 77425 | 123607
5 | 27:28.08 | 4:37.28 | 123608 | 144410
6 | 32:05.36 | 5:28.20 | 144411 | 169030
7 | 37:33.56 | 3:25.05 | 169031 | 184410
8 | 40:58.61 | 5:54.03 | 184411 | 210963
9 | 46:52.64 | 4:31.12 | 210964 | 231300
10 | 51:24.01 | 4:23.42 | 231301 | 251067
11 | 55:47.43 | 4:21.44 | 251068 | 270686
Range status and errors
Selected range
Filename K:\ЕАС\Esa Pietila Trio - Travel Of Fulica Atra.wav
Peak level 96.6 %
Extraction speed 2.0 X
Range quality 99.9 %
Test CRC 18F2F1EF
Copy CRC 18F2F1EF
Copy OK
No errors occurred
AccurateRip summary
Track 1 accurately ripped (confidence 1) [35D767EE] (AR v1)
Track 2 accurately ripped (confidence 1) [AF36259D] (AR v1)
Track 3 accurately ripped (confidence 1) [FEF0BDDE] (AR v1)
Track 4 accurately ripped (confidence 1) [FC1F1769] (AR v1)
Track 5 accurately ripped (confidence 1) [5322CEB7] (AR v1)
Track 6 accurately ripped (confidence 1) [1AA9D210] (AR v1)
Track 7 accurately ripped (confidence 1) [1F4BC5D0] (AR v1)
Track 8 accurately ripped (confidence 1) [735D7555] (AR v1)
Track 9 accurately ripped (confidence 1) [4E04A34F] (AR v1)
Track 10 accurately ripped (confidence 1) [F65A50A4] (AR v1)
Track 11 accurately ripped (confidence 1) [3B7BF8A2] (AR v1)
All tracks accurately ripped
End of status report
==== Log checksum A63C994BAE042819D12E0C078762D98374DA8D3B57371107C2AFCC98B71B19FD ====
 
Содержание индексной карты (.CUE)
REM GENRE Jazz
REM DATE 2007
REM DISCID 920E190B
REM COMMENT "ExactAudioCopy v1.0b2"
PERFORMER "Esa Pietila Trio"
TITLE "Travel Of Fulica Atra"
FILE "Esa Pietila Trio - Travel Of Fulica Atra.flac" WAVE
TRACK 01 AUDIO
TITLE "Fulica atra"
PERFORMER "Esa Pietila Trio"
INDEX 01 00:00:00
TRACK 02 AUDIO
TITLE "Summer"
PERFORMER "Esa Pietila Trio"
INDEX 00 07:57:47
INDEX 01 07:59:47
TRACK 03 AUDIO
TITLE "Free the Bird"
PERFORMER "Esa Pietila Trio"
INDEX 00 13:23:30
INDEX 01 13:25:30
TRACK 04 AUDIO
TITLE "Forget Gravity"
PERFORMER "Esa Pietila Trio"
INDEX 00 17:10:25
INDEX 01 17:12:25
TRACK 05 AUDIO
TITLE "Radar (in the night)"
PERFORMER "Esa Pietila Trio"
INDEX 00 27:26:08
INDEX 01 27:28:08
TRACK 06 AUDIO
TITLE "New Morning"
PERFORMER "Esa Pietila Trio"
INDEX 00 32:03:36
INDEX 01 32:05:36
TRACK 07 AUDIO
TITLE "The Pond"
PERFORMER "Esa Pietila Trio"
INDEX 00 37:31:56
INDEX 01 37:33:56
TRACK 08 AUDIO
TITLE "Frozen Cascades"
PERFORMER "Esa Pietila Trio"
INDEX 00 40:56:61
INDEX 01 40:58:61
TRACK 09 AUDIO
TITLE "Extreme Waves"
PERFORMER "Esa Pietila Trio"
INDEX 00 46:50:64
INDEX 01 46:52:64
TRACK 10 AUDIO
TITLE "Tonal-A"
PERFORMER "Esa Pietila Trio"
INDEX 00 51:22:01
INDEX 01 51:24:01
TRACK 11 AUDIO
TITLE "Lacus securus"
PERFORMER "Esa Pietila Trio"
INDEX 00 55:45:43
INDEX 01 55:47:43
Доп. информация: Recorded on February 23-24, 2007 at Varistosteles Studios, Vantaa, Finland.
 
Об исполнителе (группе)
The music of Esa Pietilä Trio is Scandinavic, free-oriented and communicative, composed by bass player Uffe Krokfors and saxophonist Pietilä. The trio also does a lot of collective improvisation based on the ongoing moment.
 
Состав
Bass – Ulf Krokfors
Drums, Percussion – Markku Ounaskari
Tenor Saxophone, Soprano Saxophone, Producer – Esa Pietilä
По всем вопросам пишите личное сообщение пользователю M0p94ok.
03:39
113
Нет комментариев. Ваш будет первым!