Вы используете незарегистрированную версию компонента "Вкладки"!

Поиск

(Free Jazz, Contemporary Jazz) [CD] Esa Pietila, Ulf Krokfors, Markku Ounaskari - Direct - 2003, FLAC (image+.cue), lossless

(Free Jazz, Contemporary Jazz) [CD] Esa Pietila, Ulf Krokfors, Markku Ounaskari - Direct - 2003, FLAC (image+.cue), lossless
Треклист:
Esa Pietilä, Uffe Krokfors, Markku Ounaskari / Direct
Жанр: Free Jazz, Contemporary Jazz
Носитель: CD
Страна-производитель диска: Finland
Год издания: 2003
Издатель (лейбл): Fiasko Records
Номер по каталогу: FRCD-13
Аудиокодек: FLAC (*.flac)
Тип рипа: image+.cue
Битрейт аудио: lossless
Продолжительность: 53:56
Источник (релизер): CD
Наличие сканов в содержимом раздачи: нет
Треклист:
1 Mind Hunt 4:13
2 Headway 8:33
3 Direct 3:05
4 A Sign 2:15
5 So Is... 6:17
6 Bumpy Down 3:11
7 Spring Flower 5:34
8 Purple Jungle 2:49
9 Freejohn 3:29
10 Strong Till Three 4:29
11 Point Zero 3:25
12 Triangles 6:29
 
Лог создания рипа
Exact Audio Copy V1.0 beta 2 from 29. April 2011
EAC extraction logfile from 17. July 2014, 15:07
Esa Pietila Trio / Direct
Used drive : Optiarc DVD RW AD-7170A Adapter: 0 ID: 0
Read mode : Secure
Utilize accurate stream : Yes
Defeat audio cache : Yes
Make use of C2 pointers : No
Read offset correction : 48
Overread into Lead-In and Lead-Out : No
Fill up missing offset samples with silence : Yes
Delete leading and trailing silent blocks : No
Null samples used in CRC calculations : Yes
Used interface : Native Win32 interface for Win NT & 2000
Used output format : User Defined Encoder
Selected bitrate : 320 kBit/s
Quality : High
Add ID3 tag : No
Command line compressor : C:\Program Files\Exact Audio Copy\Flac\flac.exe
Additional command line options : -V -8 -T "Date=%year%" -T "Genre=%genre%" %source%
TOC of the extracted CD
Track | Start | Length | Start sector | End sector
---------------------------------------------------------
1 | 0:00.00 | 4:13.20 | 0 | 18994
2 | 4:13.20 | 8:33.57 | 18995 | 57526
3 | 12:47.02 | 3:05.53 | 57527 | 71454
4 | 15:52.55 | 2:15.37 | 71455 | 81616
5 | 18:08.17 | 6:17.55 | 81617 | 109946
6 | 24:25.72 | 3:11.70 | 109947 | 124341
7 | 27:37.67 | 5:34.40 | 124342 | 149431
8 | 33:12.32 | 2:49.23 | 149432 | 162129
9 | 36:01.55 | 3:29.37 | 162130 | 177841
10 | 39:31.17 | 4:29.65 | 177842 | 198081
11 | 44:01.07 | 3:25.65 | 198082 | 213521
12 | 47:26.72 | 6:29.43 | 213522 | 242739
Range status and errors
Selected range
Filename K:\ЕАС\Esa Pietila Trio - Direct.wav
Peak level 100.0 %
Extraction speed 1.9 X
Range quality 100.0 %
Test CRC E56239EB
Copy CRC E56239EB
Copy OK
No errors occurred
AccurateRip summary
Track 1 accurately ripped (confidence 1) [137DA053] (AR v2)
Track 2 accurately ripped (confidence 1) [A6583C3C] (AR v2)
Track 3 accurately ripped (confidence 1) [A97C220A] (AR v2)
Track 4 accurately ripped (confidence 1) [D1E65607] (AR v2)
Track 5 accurately ripped (confidence 1) [78ACF802] (AR v2)
Track 6 accurately ripped (confidence 1) [7166A108] (AR v2)
Track 7 accurately ripped (confidence 1) [C9E83208] (AR v2)
Track 8 accurately ripped (confidence 1) [F83F5982] (AR v2)
Track 9 accurately ripped (confidence 1) [5CC815C4] (AR v2)
Track 10 accurately ripped (confidence 1) [C6EB2683] (AR v2)
Track 11 accurately ripped (confidence 1) [8FF43AD2] (AR v2)
Track 12 accurately ripped (confidence 1) [AEA96453] (AR v2)
All tracks accurately ripped
End of status report
==== Log checksum 38D625B7644CAFB8DD50FD004749F4A15556D6BDB903708B4F1C3110CF852A49 ====
 
Содержание индексной карты (.CUE)
REM GENRE Jazz
REM DATE 2003
REM DISCID BE0CA40C
REM COMMENT "ExactAudioCopy v1.0b2"
PERFORMER "Esa Pietila Trio"
TITLE "Direct"
FILE "Esa Pietila Trio - Direct.flac" WAVE
TRACK 01 AUDIO
TITLE "Mind Hunt"
PERFORMER "Esa Pietila Trio"
INDEX 01 00:00:00
TRACK 02 AUDIO
TITLE "Headway"
PERFORMER "Esa Pietila Trio"
INDEX 00 04:11:17
INDEX 01 04:13:20
TRACK 03 AUDIO
TITLE "Direct"
PERFORMER "Esa Pietila Trio"
INDEX 00 12:44:00
INDEX 01 12:47:02
TRACK 04 AUDIO
TITLE "A Sign"
PERFORMER "Esa Pietila Trio"
INDEX 00 15:50:12
INDEX 01 15:52:55
TRACK 05 AUDIO
TITLE "So is..."
PERFORMER "Esa Pietila Trio"
INDEX 00 18:05:52
INDEX 01 18:08:17
TRACK 06 AUDIO
TITLE "Bumpy Down"
PERFORMER "Esa Pietila Trio"
INDEX 00 24:23:70
INDEX 01 24:25:72
TRACK 07 AUDIO
TITLE "Spring Flower"
PERFORMER "Esa Pietila Trio"
INDEX 00 27:35:17
INDEX 01 27:37:67
TRACK 08 AUDIO
TITLE "Purple Jungle"
PERFORMER "Esa Pietila Trio"
INDEX 00 33:09:67
INDEX 01 33:12:32
TRACK 09 AUDIO
TITLE "Freejohn"
PERFORMER "Esa Pietila Trio"
INDEX 00 35:59:45
INDEX 01 36:01:55
TRACK 10 AUDIO
TITLE "Strong till three"
PERFORMER "Esa Pietila Trio"
INDEX 00 39:28:15
INDEX 01 39:31:17
TRACK 11 AUDIO
TITLE "Point Zero"
PERFORMER "Esa Pietila Trio"
INDEX 00 43:59:05
INDEX 01 44:01:07
TRACK 12 AUDIO
TITLE "Triangles"
PERFORMER "Esa Pietila Trio"
INDEX 00 47:24:70
INDEX 01 47:26:72
Доп. информация: Recording dates: April 20 & 21, May 8 & 15, 2002
 
Состав
Bass – Ulf Krokfors
Drums, Percussion – Markku Ounaskari
Tenor Saxophone, Soprano Saxophone, Producer – Esa Pietilä
По всем вопросам пишите личное сообщение пользователю M0p94ok.
03:38
119
Нет комментариев. Ваш будет первым!