Вы используете незарегистрированную версию компонента "Вкладки"!

Поиск

(Avant-Garde, Free Jazz) [CD] The Paul Smoker Notet (Steve Salerno, Phil Haynes) - Cool Lives - 2012, FLAC (tracks+.cue), lossless

(Avant-Garde, Free Jazz) [CD] The Paul Smoker Notet (Steve Salerno, Phil Haynes) - Cool Lives - 2012, FLAC (tracks+.cue), lossless
Треклист:
The Paul Smoker Notet / Cool Lives
Жанр: Avant-Garde, Free Jazz
Носитель: CD
Страна-производитель диска: U.S.A.
Год издания: 2012
Издатель (лейбл): Alvas Records
Номер по каталогу: 2102
Аудиокодек: FLAC (*.flac)
Тип рипа: tracks+.cue
Битрейт аудио: lossless
Продолжительность: 56:57
Источник (релизер): я
Наличие сканов в содержимом раздачи: да
Треклист:
1. Goodbye David I 4:19
2. Evan’s Room 6:09
3. Kami Sue 8:23
4. The LVAD 5:16
5. See How They Run 11:05
6. Elegy (for Lester Bowie) 6:48
7. By Myself (Arthur Schwartz & Howard Dietz) 8:19
8. Goodbye, David II 6:38
All compositions by Paul Smoker except where indicated.
Recorded in concert at Bucknell Hall, Bucknell University, Lewisburg PA April 27, 2011.
Paul Smoker – Trumpet
Steve Salerno – Guitar
Phil Haynes – Drums
 
Лог создания рипа
Exact Audio Copy V1.0 beta 3 from 29. August 2011
EAC extraction logfile from 14. June 2014, 18:32
The Paul Smoker Notet / Cool Lives
Used drive : SlimtypeeNAU508 5 Adapter: 1 ID: 0
Read mode : Secure
Utilize accurate stream : Yes
Defeat audio cache : Yes
Make use of C2 pointers : No
Read offset correction : 6
Overread into Lead-In and Lead-Out : No
Fill up missing offset samples with silence : Yes
Delete leading and trailing silent blocks : No
Null samples used in CRC calculations : Yes
Used interface : Native Win32 interface for Win NT & 2000
Gap handling : Appended to previous track
Used output format : User Defined Encoder
Selected bitrate : 768 kBit/s
Quality : High
Add ID3 tag : No
Command line compressor : C:\Program Files (x86)\Exact Audio Copy\Flac\flac.exe
Additional command line options : -8 -V -T "ARTIST=%artist%" -T "TITLE=%title%" -T "ALBUM=%albumtitle%" -T "DATE=%year%" -T "TRACKNUMBER=%tracknr%" -T "TOTALTRACKS=%numtracks%" -T "GENRE=%genre%" -T "ALBUMARTIST=%albumartist%" -T "ALBUM ARTIST=%albumartist%" -T "COMMENT=EAC Secure Mode, Test & Copy, AccurateRip, FLAC -8" %source%
TOC of the extracted CD
Track | Start | Length | Start sector | End sector
---------------------------------------------------------
1 | 0:00.00 | 4:19.11 | 0 | 19435
2 | 4:19.11 | 6:09.09 | 19436 | 47119
3 | 10:28.20 | 8:23.32 | 47120 | 84876
4 | 18:51.52 | 5:16.00 | 84877 | 108576
5 | 24:07.52 | 11:04.48 | 108577 | 158424
6 | 35:12.25 | 6:48.02 | 158425 | 189026
7 | 42:00.27 | 8:18.69 | 189027 | 226445
8 | 50:19.21 | 6:37.48 | 226446 | 256268
Track 1
Filename C:\EAC rips\01 - Goodbye, David I.wav
Pre-gap length 0:00:02.00
Peak level 89.1 %
Extraction speed 2.3 X
Track quality 100.0 %
Test CRC B4E56F8C
Copy CRC B4E56F8C
Track not present in AccurateRip database
Copy OK
Track 2
Filename C:\EAC rips\02 - Evan's Room.wav
Peak level 100.0 %
Extraction speed 2.7 X
Track quality 100.0 %
Test CRC 3383C6B9
Copy CRC 3383C6B9
Track not present in AccurateRip database
Copy OK
Track 3
Filename C:\EAC rips\03 - Kami Sue.wav
Peak level 100.0 %
Extraction speed 3.1 X
Track quality 100.0 %
Test CRC 6C88E13C
Copy CRC 6C88E13C
Track not present in AccurateRip database
Copy OK
Track 4
Filename C:\EAC rips\04 - The LVAD.wav
Peak level 100.0 %
Extraction speed 3.3 X
Track quality 100.0 %
Test CRC 803F06EF
Copy CRC 803F06EF
Track not present in AccurateRip database
Copy OK
Track 5
Filename C:\EAC rips\05 - See How They Run.wav
Peak level 100.0 %
Extraction speed 3.6 X
Track quality 99.9 %
Test CRC F7504458
Copy CRC F7504458
Track not present in AccurateRip database
Copy OK
Track 6
Filename C:\EAC rips\06 - Elegy (for Lester Bowie).wav
Peak level 100.0 %
Extraction speed 3.6 X
Track quality 99.9 %
Test CRC 33BCAD83
Copy CRC 33BCAD83
Track not present in AccurateRip database
Copy OK
Track 7
Filename C:\EAC rips\07 - By Myself.wav
Peak level 100.0 %
Extraction speed 4.4 X
Track quality 100.0 %
Test CRC 27987FCE
Copy CRC 27987FCE
Track not present in AccurateRip database
Copy OK
Track 8
Filename C:\EAC rips\08 - Goodbye, David II.wav
Peak level 89.1 %
Extraction speed 4.6 X
Track quality 100.0 %
Test CRC 59019B44
Copy CRC 59019B44
Track not present in AccurateRip database
Copy OK
None of the tracks are present in the AccurateRip database
No errors occurred
End of status report
---- CUETools DB Plugin V2.1.4
[CTDB TOCID: DmcBlMCFr2URtrzZhbEhpy6Vdr0-] disk not present in database
Submit result: DmcBlMCFr2URtrzZhbEhpy6Vdr0- has been uploaded
==== Log checksum 79E07EE31EA0B7AEE5DEC331BBD447F109B0025F80C7BAB3789D5B9138AB08E4 ====
 
Содержание индексной карты (.CUE)
REM GENRE Jazz
REM DATE 2012
REM DISCID 470D5808
REM COMMENT "ExactAudioCopy v1.0b3"
PERFORMER "The Paul Smoker Notet"
TITLE "Cool Lives"
FILE "01 - Goodbye, David I.wav" WAVE
TRACK 01 AUDIO
TITLE "Goodbye, David I"
PERFORMER "The Paul Smoker Notet"
FLAGS DCP
INDEX 01 00:00:00
FILE "02 - Evan's Room.wav" WAVE
TRACK 02 AUDIO
TITLE "Evan's Room"
PERFORMER "The Paul Smoker Notet"
FLAGS DCP
INDEX 01 00:00:00
FILE "03 - Kami Sue.wav" WAVE
TRACK 03 AUDIO
TITLE "Kami Sue"
PERFORMER "The Paul Smoker Notet"
FLAGS DCP
INDEX 01 00:00:00
FILE "04 - The LVAD.wav" WAVE
TRACK 04 AUDIO
TITLE "The LVAD"
PERFORMER "The Paul Smoker Notet"
FLAGS DCP
INDEX 01 00:00:00
FILE "05 - See How They Run.wav" WAVE
TRACK 05 AUDIO
TITLE "See How They Run"
PERFORMER "The Paul Smoker Notet"
FLAGS DCP
INDEX 01 00:00:00
FILE "06 - Elegy (for Lester Bowie).wav" WAVE
TRACK 06 AUDIO
TITLE "Elegy (for Lester Bowie)"
PERFORMER "The Paul Smoker Notet"
FLAGS DCP
INDEX 01 00:00:00
FILE "07 - By Myself.wav" WAVE
TRACK 07 AUDIO
TITLE "By Myself"
PERFORMER "The Paul Smoker Notet"
FLAGS DCP
INDEX 01 00:00:00
FILE "08 - Goodbye, David II.wav" WAVE
TRACK 08 AUDIO
TITLE "Goodbye, David II"
PERFORMER "The Paul Smoker Notet"
FLAGS DCP
INDEX 01 00:00:00
По всем вопросам пишите личное сообщение пользователю M0p94ok.
03:37
158
Нет комментариев. Ваш будет первым!