Вы используете незарегистрированную версию компонента "Вкладки"!

Поиск

(Free Jazz, Ethnic) [CD] Nor Cold - Nor Cold - 2013, FLAC (tracks+.cue), lossless

Треклист:
Nor Cold / Nor Cold
Жанр: Free Jazz, Ethnic
Носитель: CD
Страна-производитель диска: Poland
Год издания: 2013
Издатель (лейбл): Multikulti Project
Номер по каталогу: MPT005
Аудиокодек: FLAC (*.flac)
Тип рипа: tracks+.cue
Битрейт аудио: lossless
Продолжительность: 57:15
Источник (релизер): я
Наличие сканов в содержимом раздачи: да
Треклист:
1. Maria 10:32
2. The Thief 9:37
3. Madre: The Adolescence 5:52
4. Sadness 3:19
5. Drama 6:43
6. Falling Sky 6:17
7. Madre: The Reconciliation 6:33
8. Deep End 3:00
9. Maria radio edit (bonus track) 5:22
Music by Olgierd Dokalski, Wojciech Kwapisiński, Oori Shalev and Zeger Vandenbussche.
Recorded at Szumna studio Warsaw, Poland on 19th of November 2012.
Olgierd Dokalski – Trumpet
Wojciech Kwapisiński – Guitar
Oori Shalev – Drums, Percussion
Zeger Vandenbussche – Saxophones, Clarinet, Jew’s Harp
 
Лог создания рипа
Exact Audio Copy V1.0 beta 3 from 29. August 2011
EAC extraction logfile from 1. July 2014, 15:36
Nor Cold / Nor Cold
Used drive : SlimtypeeNAU508 5 Adapter: 1 ID: 0
Read mode : Secure
Utilize accurate stream : Yes
Defeat audio cache : Yes
Make use of C2 pointers : No
Read offset correction : 6
Overread into Lead-In and Lead-Out : No
Fill up missing offset samples with silence : Yes
Delete leading and trailing silent blocks : No
Null samples used in CRC calculations : Yes
Used interface : Native Win32 interface for Win NT & 2000
Gap handling : Appended to previous track
Used output format : User Defined Encoder
Selected bitrate : 768 kBit/s
Quality : High
Add ID3 tag : No
Command line compressor : C:\Program Files (x86)\Exact Audio Copy\Flac\flac.exe
Additional command line options : -8 -V -T "ARTIST=%artist%" -T "TITLE=%title%" -T "ALBUM=%albumtitle%" -T "DATE=%year%" -T "TRACKNUMBER=%tracknr%" -T "TOTALTRACKS=%numtracks%" -T "GENRE=%genre%" -T "ALBUMARTIST=%albumartist%" -T "ALBUM ARTIST=%albumartist%" -T "COMMENT=EAC Secure Mode, Test & Copy, AccurateRip, FLAC -8" %source%
TOC of the extracted CD
Track | Start | Length | Start sector | End sector
---------------------------------------------------------
1 | 0:00.00 | 10:31.38 | 0 | 47362
2 | 10:31.38 | 9:37.00 | 47363 | 90637
3 | 20:08.38 | 5:52.18 | 90638 | 117055
4 | 26:00.56 | 3:19.00 | 117056 | 131980
5 | 29:19.56 | 6:43.00 | 131981 | 162205
6 | 36:02.56 | 6:16.72 | 162206 | 190477
7 | 42:19.53 | 6:32.66 | 190478 | 219943
8 | 48:52.44 | 2:59.73 | 219944 | 233441
9 | 51:52.42 | 5:22.01 | 233442 | 257592
Track 1
Filename C:\EAC rips\01 - Maria.wav
Pre-gap length 0:00:02.00
Peak level 94.6 %
Extraction speed 2.5 X
Track quality 100.0 %
Test CRC 52D2D526
Copy CRC 52D2D526
Track not present in AccurateRip database
Copy OK
Track 2
Filename C:\EAC rips\02 - The Thief.wav
Peak level 94.6 %
Extraction speed 2.8 X
Track quality 99.9 %
Test CRC 4F22882B
Copy CRC 4F22882B
Track not present in AccurateRip database
Copy OK
Track 3
Filename C:\EAC rips\03 - Madre - The Adolescence.wav
Peak level 94.6 %
Extraction speed 2.9 X
Track quality 99.9 %
Test CRC 9B3D89B5
Copy CRC 9B3D89B5
Track not present in AccurateRip database
Copy OK
Track 4
Filename C:\EAC rips\04 - Sadness.wav
Peak level 94.6 %
Extraction speed 3.3 X
Track quality 100.0 %
Test CRC 504A1E4A
Copy CRC 504A1E4A
Track not present in AccurateRip database
Copy OK
Track 5
Filename C:\EAC rips\05 - Drama.wav
Peak level 94.6 %
Extraction speed 3.7 X
Track quality 100.0 %
Test CRC 9FA4B44D
Copy CRC 9FA4B44D
Track not present in AccurateRip database
Copy OK
Track 6
Filename C:\EAC rips\06 - Falling Sky.wav
Peak level 94.6 %
Extraction speed 3.9 X
Track quality 100.0 %
Test CRC CACCE6BD
Copy CRC CACCE6BD
Track not present in AccurateRip database
Copy OK
Track 7
Filename C:\EAC rips\07 - Madre - The Reconciliation.wav
Peak level 94.2 %
Extraction speed 4.1 X
Track quality 100.0 %
Test CRC 4436F268
Copy CRC 4436F268
Track not present in AccurateRip database
Copy OK
Track 8
Filename C:\EAC rips\08 - Deep End.wav
Peak level 94.6 %
Extraction speed 3.7 X
Track quality 100.0 %
Test CRC 46F52840
Copy CRC 46F52840
Track not present in AccurateRip database
Copy OK
Track 9
Filename C:\EAC rips\09 - Maria radio edit (bonus track).wav
Peak level 94.6 %
Extraction speed 3.7 X
Track quality 99.9 %
Test CRC 62705D96
Copy CRC 62705D96
Track not present in AccurateRip database
Copy OK
None of the tracks are present in the AccurateRip database
No errors occurred
End of status report
---- CUETools DB Plugin V2.1.4
[CTDB TOCID: 9JXd83oDv2l5AtoztOKDmZ4Rk_8-] found
Submit result: 9JXd83oDv2l5AtoztOKDmZ4Rk_8- has been confirmed
Track | CTDB Status
1 | (1/1) Accurately ripped
2 | (1/1) Accurately ripped
3 | (1/1) Accurately ripped
4 | (1/1) Accurately ripped
5 | (1/1) Accurately ripped
6 | (1/1) Accurately ripped
7 | (1/1) Accurately ripped
8 | (1/1) Accurately ripped
9 | (1/1) Accurately ripped
==== Log checksum D83FBD26849301FFF70D5F3900E3A09256A9CA3377202CB6D0A22FB37B2784C5 ====
 
Содержание индексной карты (.CUE)
REM GENRE Jazz
REM DATE 2013
REM DISCID 630D6A09
REM COMMENT "ExactAudioCopy v1.0b3"
PERFORMER "Nor Cold"
TITLE "Nor Cold"
FILE "01 - Maria.wav" WAVE
TRACK 01 AUDIO
TITLE "Maria"
PERFORMER "Nor Cold"
INDEX 01 00:00:00
FILE "02 - The Thief.wav" WAVE
TRACK 02 AUDIO
TITLE "The Thief"
PERFORMER "Nor Cold"
INDEX 01 00:00:00
FILE "03 - Madre - The Adolescence.wav" WAVE
TRACK 03 AUDIO
TITLE "Madre: The Adolescence"
PERFORMER "Nor Cold"
INDEX 01 00:00:00
FILE "04 - Sadness.wav" WAVE
TRACK 04 AUDIO
TITLE "Sadness"
PERFORMER "Nor Cold"
INDEX 01 00:00:00
FILE "05 - Drama.wav" WAVE
TRACK 05 AUDIO
TITLE "Drama"
PERFORMER "Nor Cold"
INDEX 01 00:00:00
FILE "06 - Falling Sky.wav" WAVE
TRACK 06 AUDIO
TITLE "Falling Sky"
PERFORMER "Nor Cold"
INDEX 01 00:00:00
FILE "07 - Madre - The Reconciliation.wav" WAVE
TRACK 07 AUDIO
TITLE "Madre: The Reconciliation"
PERFORMER "Nor Cold"
INDEX 01 00:00:00
FILE "08 - Deep End.wav" WAVE
TRACK 08 AUDIO
TITLE "Deep End"
PERFORMER "Nor Cold"
INDEX 01 00:00:00
FILE "09 - Maria radio edit (bonus track).wav" WAVE
TRACK 09 AUDIO
TITLE "Maria radio edit (bonus track)"
PERFORMER "Nor Cold"
INDEX 01 00:00:00
 
(Free) Jazz Alchemist
Nor Cold is a polish-israeli-belgium collaboration. The name of the band refers to Adam Zagajewski's novel "Warm and Cold" which in its turn comes from the biblical sentence "So because thou art lukewarm, and neither hot nor cold. I will spew thee out of my mouth" (Revelation. 3:16). The music has its source in the "Biviendo en kantando - life as a song" release which is a compilation of Balkan sephardic songs from the end of the 19th century.
I believe most of us when we hear the phrase "jewish music" have in mind the joyful virtuoso tempos of folk wedding songs. A kind of music that demands mad skills, showmanship and ability to tolerate great amounts of food and alcohol. And that would be klezmer.
Sephardic music is a different kind of art alltogether. A music of meditation, of prayer, of feeling. There are no ego shiny solos rather a constant interlining of instruments, an amalgam of melodies. The drumming is subtle and melodic, even one of the most rhythmically driven pieces of the album "The Thief" with its noir-atmosphere. Most of the times the music is volatile, with lofty melodies raised by the trumpet and saxophone frontline, emerging from the mist. There's sadness and frailty hidden in the notes, but also deep passion and empathy. And we should never run out of those in music and life.
По всем вопросам пишите личное сообщение пользователю M0p94ok.
03:39
152
Нет комментариев. Ваш будет первым!