Вы используете незарегистрированную версию компонента "Вкладки"!

Поиск

(Free Jazz, Post-Bop) [CD] Darren Johnston's Gone To Chicago (w/ Nate McBride, Frank Rosaly, Jeb Bishop, Jason Adasiewicz) - The Big Lift - 2011, FLAC (tracks+.cue), lossless

(Free Jazz, Post-Bop) [CD] Darren Johnston's Gone To Chicago (w/ Nate McBride, Frank Rosaly, Jeb Bishop, Jason Adasiewicz) - The Big Lift - 2011, FLAC (tracks+.cue), lossless
Треклист:
Darren Johnston's Gone To Chicago / The Big Lift
Жанр: Free Jazz, Post-Bop
Носитель: CD
Страна-производитель диска: US
Год издания: 2011
Издатель (лейбл): Porto Franco Records
Номер по каталогу: PFR031
Страна: US
Аудиокодек: FLAC (*.flac)
Тип рипа: tracks+.cue
Битрейт аудио: lossless
Продолжительность: 51:54
Источник (релизер): waffles.fm, FrogAndToad
Наличие сканов в содержимом раздачи:
Треклист:
1 The Big Lift 9:38
2 Cut 5:23
3 Rubber Bullets 5:20
4 Glass Ceiling, Paper Floor 9:13
5 Love Call (Ornette Coleman) 3:50
6 Two Ways Of Running 4:00
7 The Rock Quarry 8:11
8 Black And Tan Fantasy (Bub Miley, Duke Ellington) 6:16
 
Лог создания рипа
Exact Audio Copy V1.0 beta 3 from 29. August 2011
EAC extraction logfile from 27. December 2012, 18:28
Darren Johnston's Gone To Chicago / The Big Lift
Used drive : MATSHITADVD-RAM UJ8A2ES Adapter: 0 ID: 1
Read mode : Secure
Utilize accurate stream : Yes
Defeat audio cache : Yes
Make use of C2 pointers : No
Read offset correction : 102
Overread into Lead-In and Lead-Out : No
Fill up missing offset samples with silence : Yes
Delete leading and trailing silent blocks : No
Null samples used in CRC calculations : Yes
Used interface : Native Win32 interface for Win NT & 2000
Gap handling : Appended to previous track
Used output format : User Defined Encoder
Selected bitrate : 1024 kBit/s
Quality : High
Add ID3 tag : No
Command line compressor : C:\Program Files (x86)\Exact Audio Copy\Flac\flac.exe
Additional command line options : -8 -V -T "artist=%artist%" -T "title=%title%" -T "album=%albumtitle%" -T "date=%year%" -T "tracknumber=%tracknr%" -T "genre=%genre%" %source%
TOC of the extracted CD
Track | Start | Length | Start sector | End sector
---------------------------------------------------------
1 | 0:00.00 | 9:38.69 | 0 | 43418
2 | 9:38.69 | 5:23.41 | 43419 | 67684
3 | 15:02.35 | 5:20.19 | 67685 | 91703
4 | 20:22.54 | 9:13.37 | 91704 | 133215
5 | 29:36.16 | 3:50.30 | 133216 | 150495
6 | 33:26.46 | 4:00.11 | 150496 | 168506
7 | 37:26.57 | 8:11.10 | 168507 | 205341
8 | 45:37.67 | 6:16.27 | 205342 | 233568
Track 1
Filename C:\EAC Rips\Darren Johnston's Gone To Chicago - The Big Lift (2011) [FLAC]\01 - The Big Lift.wav
Pre-gap length 0:00:02.00
Peak level 98.8 %
Extraction speed 1.8 X
Track quality 100.0 %
Test CRC FED58E81
Copy CRC FED58E81
Accurately ripped (confidence 2) [31D4557F] (AR v2)
Copy OK
Track 2
Filename C:\EAC Rips\Darren Johnston's Gone To Chicago - The Big Lift (2011) [FLAC]\02 - Cut.wav
Pre-gap length 0:00:02.00
Peak level 98.8 %
Extraction speed 2.0 X
Track quality 100.0 %
Test CRC 1944931C
Copy CRC 1944931C
Accurately ripped (confidence 2) [C9FF7D8D] (AR v2)
Copy OK
Track 3
Filename C:\EAC Rips\Darren Johnston's Gone To Chicago - The Big Lift (2011) [FLAC]\03 - Rubber Bullets.wav
Pre-gap length 0:00:02.00
Peak level 98.8 %
Extraction speed 2.1 X
Track quality 100.0 %
Test CRC 5A7DFDA2
Copy CRC 5A7DFDA2
Accurately ripped (confidence 2) [C3C47C6D] (AR v2)
Copy OK
Track 4
Filename C:\EAC Rips\Darren Johnston's Gone To Chicago - The Big Lift (2011) [FLAC]\04 - Glass Ceiling, Paper Floor.wav
Pre-gap length 0:00:02.37
Peak level 98.8 %
Extraction speed 2.5 X
Track quality 100.0 %
Test CRC 4082C387
Copy CRC 4082C387
Accurately ripped (confidence 2) [914124FE] (AR v2)
Copy OK
Track 5
Filename C:\EAC Rips\Darren Johnston's Gone To Chicago - The Big Lift (2011) [FLAC]\05 - Love Call (Comp. Ornette Coleman).wav
Pre-gap length 0:00:02.37
Peak level 98.8 %
Extraction speed 2.1 X
Track quality 99.9 %
Test CRC 1E03D99F
Copy CRC 1E03D99F
Accurately ripped (confidence 2) [C4D1D6C0] (AR v2)
Copy OK
Track 6
Filename C:\EAC Rips\Darren Johnston's Gone To Chicago - The Big Lift (2011) [FLAC]\06 - Two Ways Of Running.wav
Pre-gap length 0:00:02.00
Peak level 98.8 %
Extraction speed 2.5 X
Track quality 100.0 %
Test CRC 7F64A06E
Copy CRC 7F64A06E
Accurately ripped (confidence 2) [62A9B718] (AR v2)
Copy OK
Track 7
Filename C:\EAC Rips\Darren Johnston's Gone To Chicago - The Big Lift (2011) [FLAC]\07 - The Rock Quarry.wav
Pre-gap length 0:00:02.00
Peak level 98.8 %
Extraction speed 2.9 X
Track quality 100.0 %
Test CRC A2BDAECF
Copy CRC A2BDAECF
Accurately ripped (confidence 2) [466977B7] (AR v2)
Copy OK
Track 8
Filename C:\EAC Rips\Darren Johnston's Gone To Chicago - The Big Lift (2011) [FLAC]\08 - Black And Tan Fantasy (Comp. Duke Ellington).wav
Pre-gap length 0:00:02.00
Peak level 98.8 %
Extraction speed 3.0 X
Track quality 100.0 %
Test CRC A1A1C5D8
Copy CRC A1A1C5D8
Accurately ripped (confidence 2) [BF4A7ABE] (AR v2)
Copy OK
All tracks accurately ripped
No errors occurred
End of status report
---- CUETools DB Plugin V2.1.3
[CTDB TOCID: _6Q0SRDDZ7xazp2Jcvsg29WxEvM-] disk not present in database, Submit result: _6Q0SRDDZ7xazp2Jcvsg29WxEvM- has been uploaded
==== Log checksum BA12031E7610CD6530BBFBF6789A6C0679D7BCB744DD17436A36F183B76C2FD2 ====
 
Содержание индексной карты (.CUE)
REM DATE 2011
REM DISCID 6B0C2A08
REM COMMENT "ExactAudioCopy v1.0b3"
PERFORMER "Darren Johnston's Gone To Chicago"
TITLE "The Big Lift"
FILE "01 - The Big Lift.wav" WAVE
TRACK 01 AUDIO
TITLE "The Big Lift"
PERFORMER "Darren Johnston's Gone To Chicago"
ISRC US47R1103101
FLAGS DCP
INDEX 01 00:00:00
TRACK 02 AUDIO
TITLE "Cut"
PERFORMER "Darren Johnston's Gone To Chicago"
ISRC US47R1103102
FLAGS DCP
INDEX 00 09:36:69
FILE "02 - Cut.wav" WAVE
INDEX 01 00:00:00
TRACK 03 AUDIO
TITLE "Rubber Bullets"
PERFORMER "Darren Johnston's Gone To Chicago"
ISRC US47R1103103
FLAGS DCP
INDEX 00 05:21:41
FILE "03 - Rubber Bullets.wav" WAVE
INDEX 01 00:00:00
TRACK 04 AUDIO
TITLE "Glass Ceiling, Paper Floor"
PERFORMER "Darren Johnston's Gone To Chicago"
ISRC US47R1103104
FLAGS DCP
INDEX 00 05:17:57
FILE "04 - Glass Ceiling, Paper Floor.wav" WAVE
INDEX 01 00:00:00
TRACK 05 AUDIO
TITLE "Love Call (Comp. Ornette Coleman)"
PERFORMER "Darren Johnston's Gone To Chicago"
ISRC US47R1103105
FLAGS DCP
INDEX 00 09:11:00
FILE "05 - Love Call (Comp. Ornette Coleman).wav" WAVE
INDEX 01 00:00:00
TRACK 06 AUDIO
TITLE "Two Ways Of Running"
PERFORMER "Darren Johnston's Gone To Chicago"
ISRC US47R1103106
FLAGS DCP
INDEX 00 03:48:30
FILE "06 - Two Ways Of Running.wav" WAVE
INDEX 01 00:00:00
TRACK 07 AUDIO
TITLE "The Rock Quarry"
PERFORMER "Darren Johnston's Gone To Chicago"
ISRC US47R1103107
FLAGS DCP
INDEX 00 03:58:11
FILE "07 - The Rock Quarry.wav" WAVE
INDEX 01 00:00:00
TRACK 08 AUDIO
TITLE "Black And Tan Fantasy (Comp. Duke Ellington)"
PERFORMER "Darren Johnston's Gone To Chicago"
ISRC US47R1103108
FLAGS DCP
INDEX 00 08:09:10
FILE "08 - Black And Tan Fantasy (Comp. Duke Ellington).wav" WAVE
INDEX 01 00:00:00
 
Лог проверки качества
d:\>d:\aucdtect -d/-m0 d:\zzz\*.wav
auCDtect: CD records authenticity detector, version 0.8.2
Copyright (c) 2004 Oleg Berngardt. All rights reserved.
Copyright (c) 2004 Alexander Djourik. All rights reserved.
------------------------------------------------------------
Processing file: [01. The Big Lift.wav]
------------------------------------------------------------
This track looks like CDDA with probability 100%
------------------------------------------------------------
Processing file: [02. Cut.wav]
------------------------------------------------------------
This track looks like CDDA with probability 99%
------------------------------------------------------------
Processing file: [03. Rubber Bullets.wav]
------------------------------------------------------------
This track looks like CDDA with probability 100%
------------------------------------------------------------
Processing file: [04. Glass Ceiling, Paper Floor.wav]
------------------------------------------------------------
This track looks like CDDA with probability 100%
------------------------------------------------------------
Processing file: [05. Love Call (Comp. Ornette Coleman).wav]
------------------------------------------------------------
This track looks like CDDA with probability 100%
------------------------------------------------------------
Processing file: [06. Two Ways Of Running.wav]
------------------------------------------------------------
This track looks like CDDA with probability 100%
------------------------------------------------------------
Processing file: [07. The Rock Quarry.wav]
------------------------------------------------------------
This track looks like CDDA with probability 100%
------------------------------------------------------------
Processing file: [08. Black And Tan Fantasy (Comp. Duke Ellington).wav]
------------------------------------------------------------
This track looks like CDDA with probability 100%
------------------------------------------------------------
Final Conclusion:
------------------------------------------------------------
These tracks looks like CDDA with probability 100%
Доп. информация:
 
AAJ Review
Canada-reared, but calling San Francisco home since 1997, trumpeter and composer Darren Johnston delves into the Chicago's avant, modern-jazz establishment and kicks off a vibrant set, with prominent constituents of The Windy City's fertile soundscape. With The Big Lift, the trumpeter's ascending status within the outer reaches of jazz attains another hierarchical level.
Peppered by an undulating groove-quotient, the ensemble combines a frothy and infectious mode of attack by incorporating the blues, mainstream jazz, and avant-garde musings with ethereal overtones and pumping rhythms. These aspects come to fruition with a carbonated thrust on the bouncy "Glass Ceiling, Paper Floor." Here, vibraphonist Jason Adasiewicz sprinkles colorful phrasings, and accent the Johnston and trombonist Jeb Bishop's fluent unison choruses atop drummer Frank Rosaly's perky, polyrhythmic foundations. With popping notes and linear progressions, Johnston launches a broad musical plane amid some reverse-engineering movements. And Rosaly's animated and forceful stick-work during the tail end of the bridge segues the quintet back to the primary theme.
On The Big Lift, Johnston appends another dimension to his budding discography by extracting the rawness and ingenuity of the Chicago scene and imprinting a visceral slant into the sum of its briskly moving parts.
 
Состав
Bass – Nate McBride
Drums – Frank Rosaly
Trombone – Jeb Bishop
Trumpet, Composed By – Darren Johnston
Vibraphone – Jason Adasiewicz
Recorded July 21 and 22, 2010
По всем вопросам пишите личное сообщение пользователю M0p94ok.
21:30
140
Нет комментариев. Ваш будет первым!