Вы используете незарегистрированную версию компонента "Вкладки"!

Поиск

(Free Jazz, Post-Bop, Avant-Garde Jazz) [CD] Sean Conly, Alex Harding, Darius Jones, Chad Taylor - Grass Roots - 2012, FLAC (tracks+.cue), lossless

(Free Jazz, Post-Bop, Avant-Garde Jazz) [CD] Sean Conly, Alex Harding, Darius Jones, Chad Taylor - Grass Roots - 2012, FLAC (tracks+.cue), lossless
Треклист:
Sean Conly, Alex Harding, Darius Jones, Chad Taylor / Grass Roots
Жанр: Free Jazz, Post-Bop, Avant-Garde Jazz
Носитель: CD
Страна-производитель диска: US
Год издания: 2012
Издатель (лейбл): AUM Fidelity
Номер по каталогу: AUM075
Страна: US
Аудиокодек: FLAC (*.flac)
Тип рипа: tracks+.cue
Битрейт аудио: lossless
Продолжительность: 58:54
Источник (релизер): waffles.fm, ComeOnFeet
Наличие сканов в содержимом раздачи:
Треклист:
1) HOTTTNESS (8:01)
2) LOVELORN (9:16)
3) RICOCHET (3:51)
4) SCHNIBBETT (11:50)
5) FLIGHT AZ 1734 (6:39)
6) WHATISS (10:45)
7) HOVERING ABOVE (8:32)
 
Лог создания рипа
Exact Audio Copy V1.0 beta 3 from 29. August 2011
EAC extraction logfile from 6. November 2013, 18:39
Grass Roots / Grass Roots
Used drive : HL-DT-STDVDRAM GH24NS95 Adapter: 0 ID: 2
Read mode : Secure
Utilize accurate stream : Yes
Defeat audio cache : Yes
Make use of C2 pointers : No
Read offset correction : 6
Overread into Lead-In and Lead-Out : No
Fill up missing offset samples with silence : Yes
Delete leading and trailing silent blocks : No
Null samples used in CRC calculations : Yes
Used interface : Native Win32 interface for Win NT & 2000
Gap handling : Appended to previous track
Used output format : User Defined Encoder
Selected bitrate : 1024 kBit/s
Quality : High
Add ID3 tag : No
Command line compressor : C:\Program Files (x86)\Exact Audio Copy\Flac\flac.exe
Additional command line options : -8 -V -T "artist=%artist%" -T "title=%title%" -T "album=%albumtitle%" -T "date=%year%" -T "tracknumber=%tracknr%" -T "genre=%genre%" %source%
TOC of the extracted CD
Track | Start | Length | Start sector | End sector
---------------------------------------------------------
1 | 0:00.00 | 8:01.01 | 0 | 36075
2 | 8:01.01 | 9:15.54 | 36076 | 77754
3 | 17:16.55 | 3:50.64 | 77755 | 95068
4 | 21:07.44 | 11:50.22 | 95069 | 148340
5 | 32:57.66 | 6:39.31 | 148341 | 178296
6 | 39:37.22 | 10:45.10 | 178297 | 226681
7 | 50:22.32 | 8:31.54 | 226682 | 265060
Track 1
Filename D:\Music\Jazz\Free Jazz\Grass Roots\Grass Roots - 2012 - Grass Roots\01 Hotttness.wav
Pre-gap length 0:00:02.00
Peak level 97.7 %
Extraction speed 1.1 X
Track quality 100.0 %
Test CRC 88F14F2F
Copy CRC 88F14F2F
Accurately ripped (confidence 5) [E8CFBA4E] (AR v2)
Copy OK
Track 2
Filename D:\Music\Jazz\Free Jazz\Grass Roots\Grass Roots - 2012 - Grass Roots\02 Lovelorn.wav
Peak level 97.7 %
Extraction speed 1.4 X
Track quality 100.0 %
Test CRC A1924BE0
Copy CRC A1924BE0
Accurately ripped (confidence 5) [490628E1] (AR v2)
Copy OK
Track 3
Filename D:\Music\Jazz\Free Jazz\Grass Roots\Grass Roots - 2012 - Grass Roots\03 Riccochet.wav
Peak level 97.7 %
Extraction speed 1.4 X
Track quality 100.0 %
Test CRC 43A596F7
Copy CRC 43A596F7
Accurately ripped (confidence 5) [07CA73CF] (AR v2)
Copy OK
Track 4
Filename D:\Music\Jazz\Free Jazz\Grass Roots\Grass Roots - 2012 - Grass Roots\04 Schnibbett.wav
Peak level 97.7 %
Extraction speed 1.8 X
Track quality 100.0 %
Test CRC 0F3D5D92
Copy CRC 0F3D5D92
Accurately ripped (confidence 5) [9BC7906C] (AR v2)
Copy OK
Track 5
Filename D:\Music\Jazz\Free Jazz\Grass Roots\Grass Roots - 2012 - Grass Roots\05 Flight Az.wav
Peak level 97.7 %
Extraction speed 1.9 X
Track quality 100.0 %
Test CRC BA780BC9
Copy CRC BA780BC9
Accurately ripped (confidence 5) [9279C115] (AR v2)
Copy OK
Track 6
Filename D:\Music\Jazz\Free Jazz\Grass Roots\Grass Roots - 2012 - Grass Roots\06 Whatiss.wav
Peak level 97.7 %
Extraction speed 2.1 X
Track quality 100.0 %
Test CRC 10234B19
Copy CRC 10234B19
Accurately ripped (confidence 5) [C49C765A] (AR v2)
Copy OK
Track 7
Filename D:\Music\Jazz\Free Jazz\Grass Roots\Grass Roots - 2012 - Grass Roots\07 Hovering Above.wav
Peak level 72.0 %
Extraction speed 2.2 X
Track quality 100.0 %
Test CRC 4F646F57
Copy CRC 4F646F57
Accurately ripped (confidence 5) [67B45A49] (AR v2)
Copy OK
All tracks accurately ripped
No errors occurred
End of status report
---- CUETools DB Plugin V2.1.3
[CTDB TOCID: 0F182bIar05oconmMhPwitMyAsA-] found, Submit result: 0F182bIar05oconmMhPwitMyAsA- has been confirmed
[7a64900f] (1/1) Accurately ripped
==== Log checksum B94CB44839ECCA4534A8340B0490C12300B7AF49E4C0A5BA057F068D81FDD5FB ====
 
Содержание индексной карты (.CUE)
REM GENRE "Free Jazz"
REM DATE 2012
REM DISCID 670DCE07
REM COMMENT "ExactAudioCopy v1.0b3"
PERFORMER "Grass Roots"
TITLE "Grass Roots"
FILE "01 Hotttness.wav" WAVE
TRACK 01 AUDIO
TITLE "Hotttness"
PERFORMER "Grass Roots"
ISRC USEZ90607501
INDEX 01 00:00:00
FILE "02 Lovelorn.wav" WAVE
TRACK 02 AUDIO
TITLE "Lovelorn"
PERFORMER "Grass Roots"
ISRC USEZ90607502
INDEX 01 00:00:00
FILE "03 Riccochet.wav" WAVE
TRACK 03 AUDIO
TITLE "Riccochet"
PERFORMER "Grass Roots"
ISRC USEZ90607503
INDEX 01 00:00:00
FILE "04 Schnibbett.wav" WAVE
TRACK 04 AUDIO
TITLE "Schnibbett"
PERFORMER "Grass Roots"
ISRC USEZ90607504
INDEX 01 00:00:00
FILE "05 Flight Az.wav" WAVE
TRACK 05 AUDIO
TITLE "Flight Az"
PERFORMER "Grass Roots"
ISRC USEZ90607505
INDEX 01 00:00:00
FILE "06 Whatiss.wav" WAVE
TRACK 06 AUDIO
TITLE "Whatiss"
PERFORMER "Grass Roots"
ISRC USEZ90607506
INDEX 01 00:00:00
FILE "07 Hovering Above.wav" WAVE
TRACK 07 AUDIO
TITLE "Hovering Above"
PERFORMER "Grass Roots"
ISRC USEZ90607506
INDEX 01 00:00:00
 
Лог проверки качества
d:\>d:\aucdtect -d/-m0 d:\zzz\*.wav
auCDtect: CD records authenticity detector, version 0.8.2
Copyright (c) 2004 Oleg Berngardt. All rights reserved.
Copyright (c) 2004 Alexander Djourik. All rights reserved.
------------------------------------------------------------
Processing file: [01. Hotttness.wav]
------------------------------------------------------------
This track looks like CDDA with probability 100%
------------------------------------------------------------
Processing file: [02. Lovelorn.wav]
------------------------------------------------------------
This track looks like CDDA with probability 100%
------------------------------------------------------------
Processing file: [03. Riccochet.wav]
------------------------------------------------------------
This track looks like CDDA with probability 100%
------------------------------------------------------------
Processing file: [04. Schnibbett.wav]
------------------------------------------------------------
This track looks like CDDA with probability 100%
------------------------------------------------------------
Processing file: [05. Flight Az.wav]
------------------------------------------------------------
This track looks like CDDA with probability 100%
------------------------------------------------------------
Processing file: [06. Whatiss.wav]
------------------------------------------------------------
This track looks like CDDA with probability 100%
------------------------------------------------------------
Processing file: [07. Hovering Above.wav]
------------------------------------------------------------
This track looks like CDDA with probability 100%
------------------------------------------------------------
Final Conclusion:
------------------------------------------------------------
These tracks looks like CDDA with probability 100%
Доп. информация:
 
AAJ Review
From the start of the track "Hotttness" the organized chaos is at first unsettling, yet gives way to a tight hook in the exceptional debut Grass Roots by a newly formed collective who sound like they've been playing together for decades. The two lead voices consist of alto saxophonist wunderkind Darius Jones ( Man'ish Boy (A Raw & Beautiful Thing) (Aum Fidelity, 2009) and his equally gifted reed partner-in-crime, Alex Harding who masters the unforgiving baritone saxophone. But equally formidable is the smoldering rhythm section of drummer Chad Taylor and bassist Sean Conly that supplies enough heat and inspiration of their own to counter their fiery cohorts.
The seven tracks take no prisoners whether distributing hard bopping swing in "Flight AZ 1734" or relentless freedom in "Ricochet" in the modes of John Coltrane and Albert Ayler. Yet it's the harmonious and creamy center inside Taylor's "Whatiss" that keeps Jones's atonal intro more palatable as the band methodically negotiates, shapes, and churns the funky melody. Conly's "Schnibbett" is another highlight—at nearly twelve minutes, its docile cadence is unhurried, but like a feral animal, equally threatening, as each musician intuitively collaborate and provide vibrant solos. Grass Roots is a searing introduction from a intrepid collective that is hopefully not a one-off.
 
Состав
Darius Jones: alto sax, composition
Alex Harding: baritone sax, composition
Sean Conly: bass, composition
Chad Taylor: drums, composition
Any questions -> support@pro-jazz.com. По всем вопросам пишите -> support@pro-jazz.com
21:30
133
Нет комментариев. Ваш будет первым!