Вы используете незарегистрированную версию компонента "Вкладки"!

Поиск

(Free Improvisation / Avant-Garde Jazz) [CD] The Thing (Mats Gustafsson, Ingebrigt Haker Flaten, Paal Nilssen-Love) - Mono - 2011 [Smalltown Superjazzz STSJ213CD], FLAC (tracks+.cue), lossless

(Free Improvisation / Avant-Garde Jazz) [CD] The Thing (Mats Gustafsson, Ingebrigt Haker Flaten, Paal Nilssen-Love) - Mono - 2011 [Smalltown Superjazzz STSJ213CD], FLAC (tracks+.cue), lossless
Треклист:
The Thing - Mono
Жанр: Free Improvisation / Avant-Garde Jazz
Носитель: CD
Страна-производитель диска: Norway
Год издания: 2011
Издатель (лейбл): Smalltown Superjazzz
Номер по каталогу: STSJ213CD
Аудиокодек: FLAC (*.flac)
Тип рипа: tracks+.cue
Битрейт аудио: lossless
Продолжительность: 00:33:50
Источник (релизер): what.cd / спасибо 6060842
Наличие сканов в содержимом раздачи: да, сетевые, низкого качества
Треклист:
1. Viking (08:53)
2. Alfie's Theme (06:16)
3. Bruremarsj (03:48)
4. Triple Fox (08:58)
5. Silver Slipper (02:24)
6. There Is Shitloads Of Red Meat Missing (04:02)
Composed by - Håker Flaten (tracks: 2, 4, 5, 6), Gustafsson (tracks: 2, 4, 5, 6),
Nilssen-Love (tracks: 1, 2, 4, 5, 6), Sonny Rollins (tracks: 2)
Composed by (Traditional) - Trad. (tracks: 3)
Доп. информация:
Musicians:
Mats Gustafsson - tenor & baritone saxophones
Ingebrigt Håker Flaten - bass
Paal Nilssen-Love - drums
Recorded 31st January - 1st February in MONO at Headgap Studios, Melbourne, Australia
Mastered at 14th April 2011 at Chicago Mastering Service
Playable on both mono and stereo equipment!
The Thing Official Site
Mats Gustafsson Official Site
Ingebrigt Håker Flaten Official Site
Paal Nilssen-Love Official Site
 
... photo ...


 
Лог создания рипа
X Lossless Decoder version 20121027 (142.1)
XLD extraction logfile from 2012-12-17 20:34:42 +0400
The Thing / Mono
Used drive : HL-DT-ST DVDRW GX30N (revision RP09)
Ripper mode : XLD Secure Ripper
Disable audio cache : OK for the drive with a cache less than 1375KiB
Make use of C2 pointers : NO
Read offset correction : 6
Max retry count : 20
Gap status : Analyzed, Appended
TOC of the extracted CD
Track | Start | Length | Start sector | End sector
---------------------------------------------------------
1 | 00:00:00 | 08:52:48 | 0 | 39947
2 | 08:52:48 | 06:15:48 | 39948 | 68120
3 | 15:08:21 | 03:48:19 | 68121 | 85239
4 | 18:56:40 | 08:57:65 | 85240 | 125579
5 | 27:54:30 | 02:24:49 | 125580 | 136428
6 | 30:19:04 | 04:01:71 | 136429 | 154574
AccurateRip Summary
Disc not found in AccurateRip DB.
All Tracks
Album gain : -7.26 dB
Peak : 0.964966
Statistics
Read error : 0
Jitter error (maybe fixed) : 0
Retry sector count : 0
Damaged sector count : 0
Track 01
Filename : /Users/anch/Music/FLAC/The Thing - 2011 - Mono [FLAC]/01 - Viking.flac
/Users/anch/Music/FLAC/The Thing - 2011 - Mono [MP3 V0]/01 - Viking.mp3
Pre-gap length : 00:02:00
Track gain : -8.00 dB
Peak : 0.964966
CRC32 hash (test run) : 6E0D8D33
CRC32 hash : 6E0D8D33
CRC32 hash (skip zero) : F9B942A3
AccurateRip v1 signature : A972CD87
AccurateRip v2 signature : F15E51B5
->Track not present in AccurateRip database.
Statistics
Read error : 0
Jitter error (maybe fixed) : 0
Retry sector count : 0
Damaged sector count : 0
Track 02
Filename : /Users/anch/Music/FLAC/The Thing - 2011 - Mono [FLAC]/02 - Alfie's Theme.flac
/Users/anch/Music/FLAC/The Thing - 2011 - Mono [MP3 V0]/02 - Alfie's Theme.mp3
Pre-gap length : 00:06:10
Track gain : -7.03 dB
Peak : 0.964966
CRC32 hash (test run) : 8DDD41BD
CRC32 hash : 8DDD41BD
CRC32 hash (skip zero) : E68697D6
AccurateRip v1 signature : EB689D97
AccurateRip v2 signature : 89B992AB
->Track not present in AccurateRip database.
Statistics
Read error : 0
Jitter error (maybe fixed) : 0
Retry sector count : 0
Damaged sector count : 0
Track 03
Filename : /Users/anch/Music/FLAC/The Thing - 2011 - Mono [FLAC]/03 - Bruremarsj.flac
/Users/anch/Music/FLAC/The Thing - 2011 - Mono [MP3 V0]/03 - Bruremarsj.mp3
Pre-gap length : 00:04:21
Track gain : 7.67 dB
Peak : 0.679260
CRC32 hash (test run) : 8D8E673E
CRC32 hash : 8D8E673E
CRC32 hash (skip zero) : 6785D62C
AccurateRip v1 signature : DAE337D1
AccurateRip v2 signature : 27B73C98
->Track not present in AccurateRip database.
Statistics
Read error : 0
Jitter error (maybe fixed) : 0
Retry sector count : 0
Damaged sector count : 0
Track 04
Filename : /Users/anch/Music/FLAC/The Thing - 2011 - Mono [FLAC]/04 - Triple Fox.flac
/Users/anch/Music/FLAC/The Thing - 2011 - Mono [MP3 V0]/04 - Triple Fox.mp3
Pre-gap length : 00:03:06
Track gain : -7.47 dB
Peak : 0.964966
CRC32 hash (test run) : 3262E9C6
CRC32 hash : 3262E9C6
CRC32 hash (skip zero) : 685E6CEC
AccurateRip v1 signature : FC8CF7C3
AccurateRip v2 signature : E18FA43B
->Track not present in AccurateRip database.
Statistics
Read error : 0
Jitter error (maybe fixed) : 0
Retry sector count : 0
Damaged sector count : 0
Track 05
Filename : /Users/anch/Music/FLAC/The Thing - 2011 - Mono [FLAC]/05 - Silver Slipper.flac
/Users/anch/Music/FLAC/The Thing - 2011 - Mono [MP3 V0]/05 - Silver Slipper.mp3
Pre-gap length : 00:11:62
Track gain : -4.24 dB
Peak : 0.964966
CRC32 hash (test run) : 8C1ABCBB
CRC32 hash : 8C1ABCBB
CRC32 hash (skip zero) : F153D0D7
AccurateRip v1 signature : 740BB0C8
AccurateRip v2 signature : 3BACA775
->Track not present in AccurateRip database.
Statistics
Read error : 0
Jitter error (maybe fixed) : 0
Retry sector count : 0
Damaged sector count : 0
Track 06
Filename : /Users/anch/Music/FLAC/The Thing - 2011 - Mono [FLAC]/06 - There Is Shitloads of Red Meat Missing.flac
/Users/anch/Music/FLAC/The Thing - 2011 - Mono [MP3 V0]/06 - There Is Shitloads of Red Meat Missing.mp3
Pre-gap length : 00:04:74
Track gain : 5.28 dB
Peak : 0.741669
CRC32 hash (test run) : 86BA964E
CRC32 hash : 86BA964E
CRC32 hash (skip zero) : 85008391
AccurateRip v1 signature : 3C1E267B
AccurateRip v2 signature : F29D2158
->Track not present in AccurateRip database.
Statistics
Read error : 0
Jitter error (maybe fixed) : 0
Retry sector count : 0
Damaged sector count : 0
No errors occurred
End of status report
 
Содержание индексной карты (.CUE)
TITLE "Mono"
PERFORMER "The Thing"
REM GENRE "Free Jazz"
REM DATE "2011"
REM DISCID 45080D06
REM REPLAYGAIN_ALBUM_GAIN -7.26 dB
REM REPLAYGAIN_ALBUM_PEAK 0.964966
FILE "01 - Viking.flac" WAVE
TRACK 01 AUDIO
TITLE "Viking"
SONGWRITER "Paal Nilssen-Love"
ISRC NOSTS1113010
REM REPLAYGAIN_TRACK_GAIN -8.00 dB
REM REPLAYGAIN_TRACK_PEAK 0.964966
INDEX 01 00:00:00
TRACK 02 AUDIO
TITLE "Alfie's Theme"
SONGWRITER "Sonny Rollins"
ISRC NOSTS1113020
REM REPLAYGAIN_TRACK_GAIN -7.03 dB
REM REPLAYGAIN_TRACK_PEAK 0.964966
INDEX 00 08:46:38
FILE "02 - Alfie's Theme.flac" WAVE
INDEX 01 00:00:00
TRACK 03 AUDIO
TITLE "Bruremarsj"
SONGWRITER "Traditional"
ISRC NOSTS1113030
REM REPLAYGAIN_TRACK_GAIN 7.67 dB
REM REPLAYGAIN_TRACK_PEAK 0.679260
INDEX 00 06:11:27
FILE "03 - Bruremarsj.flac" WAVE
INDEX 01 00:00:00
TRACK 04 AUDIO
TITLE "Triple Fox"
SONGWRITER "Paal Nilssen-Love/Mats Gustafsson/Ingebrigt Håker Flaten"
ISRC NOSTS1113040
REM REPLAYGAIN_TRACK_GAIN -7.47 dB
REM REPLAYGAIN_TRACK_PEAK 0.964966
INDEX 00 03:45:13
FILE "04 - Triple Fox.flac" WAVE
INDEX 01 00:00:00
TRACK 05 AUDIO
TITLE "Silver Slipper"
SONGWRITER "Paal Nilssen-Love/Ingebrigt Håker Flaten/Mats Gustafsson"
ISRC NOSTS1113050
REM REPLAYGAIN_TRACK_GAIN -4.24 dB
REM REPLAYGAIN_TRACK_PEAK 0.964966
INDEX 00 08:46:03
FILE "05 - Silver Slipper.flac" WAVE
INDEX 01 00:00:00
TRACK 06 AUDIO
TITLE "There Is Shitloads of Red Meat Missing"
SONGWRITER "Mats Gustafsson/Ingebrigt Håker Flaten/Paal Nilssen-Love"
ISRC NOSTS1113060
REM REPLAYGAIN_TRACK_GAIN 5.28 dB
REM REPLAYGAIN_TRACK_PEAK 0.741669
INDEX 00 02:19:50
FILE "06 - There Is Shitloads of Red Meat Missing.flac" WAVE
INDEX 01 00:00:00
 
auCDtect Task Manager
-----------------------
DON'T MODIFY THIS FILE
-----------------------
PERFORMER: auCDtect Task Manager, ver. 1.5.1RC6 build 1.5.1.7
Copyright (c) 2008-2010 y-soft. All rights reserved
http://y-soft.org
ANALYZER: auCDtect: CD records authenticity detector, version 0.8.2
Copyright (c) 2004 Oleg Berngardt. All rights reserved.
Copyright (c) 2004 Alexander Djourik. All rights reserved.
FILE: 06 - There Is Shitloads of Red Meat Missing.flac
Size: 9245574 Hash: 19D72B3E67E79E9F80359E1962A388EC Accuracy: -m0
Conclusion: CDDA 100%
Signature: 02E6CAFEF0D88AF0096D18DBFADC84AE6A53D718
FILE: 05 - Silver Slipper.flac
Size: 9166219 Hash: 003A8A5E0069D4CB55A1B9E90EE3A6DF Accuracy: -m0
Conclusion: CDDA 100%
Signature: B3623ED8EFE55D6A700C818F25D29B106EC4530A
FILE: 04 - Triple Fox.flac
Size: 30410952 Hash: A3F9F87CFDF66605CE9B2FBE12E24708 Accuracy: -m0
Conclusion: CDDA 100%
Signature: 2167CEE638F71831B01E3F0A987F3F97351E8685
FILE: 03 - Bruremarsj.flac
Size: 8833549 Hash: C078C41A57F8F7796132EE7EF9CCF199 Accuracy: -m0
Conclusion: CDDA 100%
Signature: EB3877AE67A9DD699F57F25CFD1F72F6A19FFBFF
FILE: 02 - Alfie's Theme.flac
Size: 22928495 Hash: B00E7F6C7A29824EC3477D4F1BEFA44D Accuracy: -m0
Conclusion: CDDA 100%
Signature: 1130511AA2BE1D3F0C08A8E980FCF62B0910FF12
FILE: 01 - Viking.flac
Size: 31744630 Hash: 05D698A4D8409541E3DEAD544B24A86F Accuracy: -m0
Conclusion: CDDA 100%
Signature: CBA9FD80F4D9517B516A70C76E57375D334E5712
... релизы с участием PAAL NILSSEN-LOVE на трекере ...
Any questions -> support@pro-jazz.com. По всем вопросам пишите -> support@pro-jazz.com
21:31
141
Нет комментариев. Ваш будет первым!