Вы используете незарегистрированную версию компонента "Вкладки"!

Поиск

(Free Improvisation, Contemporary Jazz, Plainisphare) [CD] Le CoCo (Peter Ehrnrooth, Claude Jordan, Christine Schaller, Jacques Siron a. o.) - Notes pour un opera : « Au joli bois de may » - 1994, FLAC (tracks+.cue), lossless

(Free Improvisation, Contemporary Jazz, Plainisphare) [CD] Le CoCo (Peter Ehrnrooth, Claude Jordan, Christine Schaller, Jacques Siron a. o.) - Notes pour un opera : « Au joli bois de may » - 1994, FLAC (tracks+.cue), lossless
Треклист:
Le CoCo / Notes pour un opéra : « Au joli bois de may »
Жанр: Free Improvisation, Contemporary Jazz, Plainisphare
Носитель: CD
Страна-производитель диска: Switzerland
Год издания: 1994
Издатель (лейбл): Plainisphare
Номер по каталогу: PL 1267-95
Аудиокодек: FLAC (*.flac)
Тип рипа: tracks+.cue
Битрейт аудио: lossless
Продолжительность: 57:06
Источник (релизер): я
Наличие сканов в содержимом раздачи: нет
Треклист:
Notes pour un opéra : « Au joli bois de may »
Acte premier
01. Scène 1 (4:09)
02. Scène 2 (12:50)
03. Scène 3 (2:26)
04. Scène 4 (1:29)
05. Scène 5 (3:32)
Acte deuxième
06. Scène 1 (5:09)
Improvisations
07. La Criée (2:08)
08. Flip Floyd (1:43)
09. Les Joyeuses (1:23)
10. Japanese Umbrella (1:28)
11. Glockenspiel allein / Symphony mini mini (4:37)
12. Équilibre instable (1:01)
13. La plus que merdeuse (0:51)
14. La Chute des corps (0:53)
15. Clarinet / Voice (1:39)
16. Napoli Impressions (2:11)
17. Croiser un croiseur (3:13)
18. Les Aventures de Jacques et Christine (2:00)
19. To Mose Allison (2:15)
20. Violenza Carnaval (2:10)
Musique composée et improvisée par Le CoCo.
Enregistré en février 1993 au Studio Ernest Ansermet de la RSR, Genève.
Patrick Devers – percussions
Peter Ehrnrooth – clarinettes
Claude Jordan – flûtes, flûtes électriques, synthétiseur, dulcimer
Jean-François Mathieu – guitares
Christine Schaller – voix
Jacques Siron – contrebasse
Claude Tabarini – voix, livret
 
Лог создания рипа
Exact Audio Copy V1.0 beta 3 from 29. August 2011
EAC extraction logfile from 16. November 2013, 22:32
Le CoCo / Notes pour un opéra: "Au joli bois de may"
Used drive : SlimtypeeNAU508 5 Adapter: 1 ID: 0
Read mode : Secure
Utilize accurate stream : Yes
Defeat audio cache : Yes
Make use of C2 pointers : No
Read offset correction : 6
Overread into Lead-In and Lead-Out : No
Fill up missing offset samples with silence : Yes
Delete leading and trailing silent blocks : No
Null samples used in CRC calculations : Yes
Used interface : Native Win32 interface for Win NT & 2000
Gap handling : Appended to previous track
Used output format : User Defined Encoder
Selected bitrate : 768 kBit/s
Quality : High
Add ID3 tag : No
Command line compressor : C:\Program Files (x86)\Exact Audio Copy\Flac\flac.exe
Additional command line options : -8 -V -T "ARTIST=%artist%" -T "TITLE=%title%" -T "ALBUM=%albumtitle%" -T "DATE=%year%" -T "TRACKNUMBER=%tracknr%" -T "GENRE=%genre%" -T "PERFORMER=%albuminterpret%" -T "COMPOSER=%composer%" %haslyrics%--tag-from-file=LYRICS="%lyricsfile%"%haslyrics% -T "ALBUMARTIST=%albumartist%" -T "DISCNUMBER=%cdnumber%" -T "TOTALDISCS=%totalcds%" -T "TOTALTRACKS=%numtracks%" -T "COMMENT=%comment%" %source% -o %dest%
TOC of the extracted CD
Track | Start | Length | Start sector | End sector
---------------------------------------------------------
1 | 0:00.00 | 4:09.00 | 0 | 18674
2 | 4:09.00 | 12:50.17 | 18675 | 76441
3 | 16:59.17 | 2:25.70 | 76442 | 87386
4 | 19:25.12 | 1:28.73 | 87387 | 94059
5 | 20:54.10 | 3:31.65 | 94060 | 109949
6 | 24:26.00 | 5:08.62 | 109950 | 133111
7 | 29:34.62 | 2:07.48 | 133112 | 142684
8 | 31:42.35 | 1:42.65 | 142685 | 150399
9 | 33:25.25 | 1:23.17 | 150400 | 156641
10 | 34:48.42 | 1:27.70 | 156642 | 163236
11 | 36:16.37 | 4:37.08 | 163237 | 184019
12 | 40:53.45 | 1:00.57 | 184020 | 188576
13 | 41:54.27 | 0:51.13 | 188577 | 192414
14 | 42:45.40 | 0:53.30 | 192415 | 196419
15 | 43:38.70 | 1:38.55 | 196420 | 203824
16 | 45:17.50 | 2:10.62 | 203825 | 213636
17 | 47:28.37 | 3:13.15 | 213637 | 228126
18 | 50:41.52 | 1:59.55 | 228127 | 237106
19 | 52:41.32 | 2:14.50 | 237107 | 247206
20 | 54:56.07 | 2:09.68 | 247207 | 256949
Track 1
Filename C:\EAC rips\01 - ''Au joli bois de may'' - Acte premier - Scène 1.wav
Pre-gap length 0:00:02.00
Peak level 79.8 %
Extraction speed 1.7 X
Track quality 99.9 %
Test CRC B1D0B4BD
Copy CRC B1D0B4BD
Track not present in AccurateRip database
Copy OK
Track 2
Filename C:\EAC rips\02 - ''Au joli bois de may'' - Acte premier - Scène 2.wav
Peak level 95.7 %
Extraction speed 2.6 X
Track quality 99.9 %
Test CRC 191701CB
Copy CRC 191701CB
Track not present in AccurateRip database
Copy OK
Track 3
Filename C:\EAC rips\03 - ''Au joli bois de may'' - Acte premier - Scène 3.wav
Peak level 9.8 %
Extraction speed 2.6 X
Track quality 100.0 %
Test CRC 06A6CEA6
Copy CRC 06A6CEA6
Track not present in AccurateRip database
Copy OK
Track 4
Filename C:\EAC rips\04 - ''Au joli bois de may'' - Acte premier - Scène 4.wav
Peak level 33.4 %
Extraction speed 1.6 X
Track quality 99.8 %
Test CRC E079E981
Copy CRC E079E981
Track not present in AccurateRip database
Copy OK
Track 5
Filename C:\EAC rips\05 - ''Au joli bois de may'' - Acte premier - Scène 5.wav
Peak level 43.4 %
Extraction speed 3.0 X
Track quality 100.0 %
Test CRC 3213C7EC
Copy CRC 3213C7EC
Track not present in AccurateRip database
Copy OK
Track 6
Filename C:\EAC rips\06 - ''Au joli bois de may'' - Acte deuxième - Scène 1.wav
Peak level 98.4 %
Extraction speed 3.3 X
Track quality 100.0 %
Test CRC 1AB5B0A2
Copy CRC 1AB5B0A2
Track not present in AccurateRip database
Copy OK
Track 7
Filename C:\EAC rips\07 - Improvisations - La Criée.wav
Pre-gap length 0:00:11.45
Peak level 98.5 %
Extraction speed 3.0 X
Track quality 100.0 %
Test CRC 8E1EC377
Copy CRC 8E1EC377
Track not present in AccurateRip database
Copy OK
Track 8
Filename C:\EAC rips\08 - Improvisations - Flip Floyd.wav
Pre-gap length 0:00:01.10
Peak level 26.3 %
Extraction speed 2.8 X
Track quality 100.0 %
Test CRC 48904C91
Copy CRC 48904C91
Track not present in AccurateRip database
Copy OK
Track 9
Filename C:\EAC rips\09 - Improvisations - Les Joyeuses.wav
Pre-gap length 0:00:01.23
Peak level 95.1 %
Extraction speed 2.7 X
Track quality 100.0 %
Test CRC FAEE9D6A
Copy CRC FAEE9D6A
Track not present in AccurateRip database
Copy OK
Track 10
Filename C:\EAC rips\10 - Improvisations - Japanese Umbrella.wav
Pre-gap length 0:00:01.12
Peak level 5.5 %
Extraction speed 1.9 X
Track quality 99.8 %
Test CRC 97CCAFD5
Copy CRC 97CCAFD5
Track not present in AccurateRip database
Copy OK
Track 11
Filename C:\EAC rips\11 - Improvisations - Glockenspiel allein - Symphony mini mini.wav
Peak level 60.7 %
Extraction speed 3.7 X
Track quality 100.0 %
Test CRC 307531AE
Copy CRC 307531AE
Track not present in AccurateRip database
Copy OK
Track 12
Filename C:\EAC rips\12 - Improvisations - Équilibre instable.wav
Pre-gap length 0:00:00.33
Peak level 72.9 %
Extraction speed 1.6 X
Track quality 99.8 %
Test CRC 540CAB94
Copy CRC 540CAB94
Track not present in AccurateRip database
Copy OK
Track 13
Filename C:\EAC rips\13 - Improvisations - La plus que merdeuse.wav
Peak level 14.9 %
Extraction speed 2.5 X
Track quality 100.0 %
Test CRC F76C018C
Copy CRC F76C018C
Track not present in AccurateRip database
Copy OK
Track 14
Filename C:\EAC rips\14 - Improvisations - La Chute des corps.wav
Peak level 52.4 %
Extraction speed 2.5 X
Track quality 100.0 %
Test CRC 12892A04
Copy CRC 12892A04
Track not present in AccurateRip database
Copy OK
Track 15
Filename C:\EAC rips\15 - Improvisations - Clarinet - Voice.wav
Pre-gap length 0:00:01.23
Peak level 6.2 %
Extraction speed 3.2 X
Track quality 100.0 %
Test CRC 3D01CB18
Copy CRC 3D01CB18
Track not present in AccurateRip database
Copy OK
Track 16
Filename C:\EAC rips\16 - Improvisations - Napoli Impressions.wav
Pre-gap length 0:00:01.13
Peak level 42.6 %
Extraction speed 2.5 X
Track quality 99.9 %
Test CRC 63D72C86
Copy CRC 63D72C86
Track not present in AccurateRip database
Copy OK
Track 17
Filename C:\EAC rips\17 - Improvisations - Croiser un croiseur.wav
Peak level 92.8 %
Extraction speed 2.9 X
Track quality 99.9 %
Test CRC 7BA71A52
Copy CRC 7BA71A52
Track not present in AccurateRip database
Copy OK
Track 18
Filename C:\EAC rips\18 - Improvisations - Les Aventures de Jacques et Christine.wav
Pre-gap length 0:00:06.27
Peak level 16.9 %
Extraction speed 3.5 X
Track quality 100.0 %
Test CRC FECBD479
Copy CRC FECBD479
Track not present in AccurateRip database
Copy OK
Track 19
Filename C:\EAC rips\19 - Improvisations - To Mose Allison.wav
Peak level 22.8 %
Extraction speed 3.7 X
Track quality 100.0 %
Test CRC CDC12BCC
Copy CRC CDC12BCC
Track not present in AccurateRip database
Copy OK
Track 20
Filename C:\EAC rips\20 - Improvisations - Violenza Carnaval.wav
Peak level 77.4 %
Extraction speed 3.7 X
Track quality 100.0 %
Test CRC 80E03F4D
Copy CRC 80E03F4D
Track not present in AccurateRip database
Copy OK
None of the tracks are present in the AccurateRip database
No errors occurred
End of status report
---- CUETools DB Plugin V2.1.4
[CTDB TOCID: sgDzspzeKXMUrYv4obDQ2y4G5Zo-] disk not present in database
Submit result: sgDzspzeKXMUrYv4obDQ2y4G5Zo- has been uploaded
==== Log checksum BCC8938652E71108F0056974E0755A10D19314D64547C8F4801E75688B71B545 ====
 
Содержание индексной карты (.CUE)
REM GENRE Jazz
REM DATE 1994
REM DISCID 130D6214
REM COMMENT "ExactAudioCopy v1.0b3"
PERFORMER "Le CoCo"
TITLE "Notes pour un opéra: 'Au joli bois de may'"
FILE "01 - ''Au joli bois de may'' - Acte premier - Scène 1.wav" WAVE
TRACK 01 AUDIO
TITLE "'Au joli bois de may' - Acte premier : Scène 1"
PERFORMER "Le CoCo"
INDEX 01 00:00:00
FILE "02 - ''Au joli bois de may'' - Acte premier - Scène 2.wav" WAVE
TRACK 02 AUDIO
TITLE "'Au joli bois de may' - Acte premier : Scène 2"
PERFORMER "Le CoCo"
INDEX 01 00:00:00
FILE "03 - ''Au joli bois de may'' - Acte premier - Scène 3.wav" WAVE
TRACK 03 AUDIO
TITLE "'Au joli bois de may' - Acte premier : Scène 3"
PERFORMER "Le CoCo"
INDEX 01 00:00:00
FILE "04 - ''Au joli bois de may'' - Acte premier - Scène 4.wav" WAVE
TRACK 04 AUDIO
TITLE "'Au joli bois de may' - Acte premier : Scène 4"
PERFORMER "Le CoCo"
INDEX 01 00:00:00
FILE "05 - ''Au joli bois de may'' - Acte premier - Scène 5.wav" WAVE
TRACK 05 AUDIO
TITLE "'Au joli bois de may' - Acte premier : Scène 5"
PERFORMER "Le CoCo"
INDEX 01 00:00:00
FILE "06 - ''Au joli bois de may'' - Acte deuxième - Scène 1.wav" WAVE
TRACK 06 AUDIO
TITLE "'Au joli bois de may' - Acte deuxième : Scène 1"
PERFORMER "Le CoCo"
INDEX 01 00:00:00
TRACK 07 AUDIO
TITLE "Improvisations - La Criée"
PERFORMER "Le CoCo"
INDEX 00 04:57:17
FILE "07 - Improvisations - La Criée.wav" WAVE
INDEX 01 00:00:00
TRACK 08 AUDIO
TITLE "Improvisations - Flip Floyd"
PERFORMER "Le CoCo"
INDEX 00 02:06:38
FILE "08 - Improvisations - Flip Floyd.wav" WAVE
INDEX 01 00:00:00
TRACK 09 AUDIO
TITLE "Improvisations - Les Joyeuses"
PERFORMER "Le CoCo"
INDEX 00 01:41:42
FILE "09 - Improvisations - Les Joyeuses.wav" WAVE
INDEX 01 00:00:00
TRACK 10 AUDIO
TITLE "Improvisations - Japanese Umbrella"
PERFORMER "Le CoCo"
INDEX 00 01:22:05
FILE "10 - Improvisations - Japanese Umbrella.wav" WAVE
INDEX 01 00:00:00
FILE "11 - Improvisations - Glockenspiel allein - Symphony mini mini.wav" WAVE
TRACK 11 AUDIO
TITLE "Improvisations - Glockenspiel allein / Symphony mini mini"
PERFORMER "Le CoCo"
INDEX 01 00:00:00
TRACK 12 AUDIO
TITLE "Improvisations - Équilibre instable"
PERFORMER "Le CoCo"
INDEX 00 04:36:50
FILE "12 - Improvisations - Équilibre instable.wav" WAVE
INDEX 01 00:00:00
FILE "13 - Improvisations - La plus que merdeuse.wav" WAVE
TRACK 13 AUDIO
TITLE "Improvisations - La plus que merdeuse"
PERFORMER "Le CoCo"
INDEX 01 00:00:00
FILE "14 - Improvisations - La Chute des corps.wav" WAVE
TRACK 14 AUDIO
TITLE "Improvisations - La Chute des corps "
PERFORMER "Le CoCo"
INDEX 01 00:00:00
TRACK 15 AUDIO
TITLE "Improvisations - Clarinet / Voice"
PERFORMER "Le CoCo"
INDEX 00 00:52:07
FILE "15 - Improvisations - Clarinet - Voice.wav" WAVE
INDEX 01 00:00:00
TRACK 16 AUDIO
TITLE "Improvisations - Napoli Impressions"
PERFORMER "Le CoCo"
INDEX 00 01:37:42
FILE "16 - Improvisations - Napoli Impressions.wav" WAVE
INDEX 01 00:00:00
FILE "17 - Improvisations - Croiser un croiseur.wav" WAVE
TRACK 17 AUDIO
TITLE "Improvisations - Croiser un croiseur"
PERFORMER "Le CoCo"
INDEX 01 00:00:00
TRACK 18 AUDIO
TITLE "Improvisations - Les Aventures de Jacques et Christine"
PERFORMER "Le CoCo"
INDEX 00 03:06:63
FILE "18 - Improvisations - Les Aventures de Jacques et Christine.wav" WAVE
INDEX 01 00:00:00
FILE "19 - Improvisations - To Mose Allison.wav" WAVE
TRACK 19 AUDIO
TITLE "Improvisations - To Mose Allison"
PERFORMER "Le CoCo"
INDEX 01 00:00:00
FILE "20 - Improvisations - Violenza Carnaval.wav" WAVE
TRACK 20 AUDIO
TITLE "Improvisations - Violenza Carnaval"
PERFORMER "Le CoCo"
INDEX 01 00:00:00
По всем вопросам пишите личное сообщение пользователю M0p94ok.
21:32
166
Нет комментариев. Ваш будет первым!