Вы используете незарегистрированную версию компонента "Вкладки"!

Поиск

(Avant-Garde Jazz / Experimental) [CD] James Plotkin & Paal Nilssen-Love - Death Rattle - 2013 [Rune Grammofon RCD 2148], FLAC (tracks+.cue), lossless

(Avant-Garde Jazz / Experimental) [CD] James Plotkin & Paal Nilssen-Love - Death Rattle - 2013 [Rune Grammofon RCD 2148], FLAC (tracks+.cue), lossless
Треклист:
James Plotkin & Paal Nilssen-Love - Death Rattle
Жанр: Avant-Garde Jazz / Experimental
Носитель: CD
Страна-производитель диска: Norway
Год издания: 2013
Издатель (лейбл): Rune Grammofon
Номер по каталогу: RCD 2148
Аудиокодек: FLAC (*.flac)
Тип рипа: tracks+.cue
Битрейт аудио: lossless
Продолжительность: 00:46:43
Источник (релизер): what.cd / спасибо 6060842
Наличие сканов в содержимом раздачи: нет
Треклист:
1. The Skin, The Colour (10:56)
2. Primateria (12:30)
3. Cock Circus (12:50)
4. Death Rattle (10:25)
Доп. информация:
Musicians:
James Plotkin - guitar
Paal Nilssen-Love - drums
Released 18.10.13 © 2013 Rune Grammofon
James Plotkin & Paal Nilssen-Love - Death Rattle runegrammofon.com
James Plotkin from Wikipedia, the free encyclopedia
Paal Nilssen-Love Official Site
 
... reviews ...
Philadelphia noise guitarist Plotkin and Norwegian free jazz drummer Nilssen-Love crack heads in a championship bout of heavyweight grappling, throwing themselves into a swirling vortex of mutant noise on opening track "The Skin, The Colour" before achieving a mournful stuttering truce on elegiac album closer "Death Rattle". 4/5.
~ Mojo (UK)
Metal guitarist James Plotkin and The Thing’s drummer Paal Nilssen-Love recorded Death Rattle in the States last year in no time at all, just a four-hour session did the trick, and there’s an impulsive and immediate quality to the set that isn’t really surprising given the circumstances. Yet the extraordinary, knock-’em-out quality of Nilssen-Love’s Rashied Ali-meets-Keith Moon method is well captured. While Plotkin, a highly combustible presence as it turns out, is clearly no slouch in the energy department either, he is quite often simply overpowered rhythmically here although he does come to the boil messily on the third track. Longueurs aside when the players circle each other to no obvious result say on 'Primateria' Death Rattle more than rises to the challenge of the confrontation.
~ Marlbank (UK)
James Plotkin has primarily made his name with loud, arty metal, and drummer Paal Nilssen-Love frequently backs obstreperous saxophonists like Peter Brötzmann, Mats Gustafsson and Ken Vandermark. So it would be reasonable to anticipate a disc of high volume, big swinging dick duels. Right? There´s actually relatively little of that to be found on "Death Rattle", despite track titles which suggest second coming of Last Exit. The album has a few downtuned, doomy moments, but much of it finds Plotkin zapping through an array of effects, making math noises that, when laid over Nilssen-Love´s surprisingly steady beats, sometimes remind you of Battles. But on the album´s closing title piece, they head into a more atmospheric space, Plotkin letting off short, slightly variegated bursts of skronk and stun gun squeals as Nilssen-Love interjects short barrages.
~ The Wire (UK)
James Plotkin unngår klisjeer og fraser fra i går og fremstår som en gitarist for vår tid. Han etterstreber ett nytt språk og klarer langt på vei å realisere det. Først og fremst er uttrykket hans gjenkjennelig som gitarspill i tradisjonell forstand. Det er ingen selvfølge blant avantgardister. Nåt det er sagt, kan det raskt tilføyes at Plotkins blanding av overstyrte effekter, metalliske tilbøyeligheter og massive riff gir et utradisjonelt sound... Nilssen-Love underbygger det kraftfulle siget i duoens musikk og hakker den opp. Intensiteten og presisjonen har egenverdi, men trommespillet skaper først og fremst stadig nye rom i Plotkins solide bygg. Møtet mellom James Plotkin og Paal Nilssen-Love formidler en sult som er sjelden hos så erfarne musikere. Duoen trekker en linje fra Jimi Hendrix´ eksperimentelle område, via Sonny Sharrock og Stephen O´Malleys mørke felt, til en hvit flekk med plass til fin egenart. 5/6.
~ Aftenposten (NO)
In den frühen 1990er, als auf den Earache-Label in Nottingham neue Extreme der Klang- gestaltung ausprobiert wurden, von Carcass, Entombed, Godflesh, Morbid Angel, Napalm Death und nicht zuletzt Pain Killer mit ihrer ultimativen Fusion von Jazz- & Grindcore, war James Plotkin mit O.L.D. mit dabei. In Khanate und Lotus Eaters mit Stephen O'Malley und in Jodis zusammen mit Aaron Turner (von Isis und Mamiffer) setzte er seither seine gitar- ristische Wühlarbeit fort, die nun in Death Rattle (RCD 2148) sich selbst mit einer beson- deren Herausforderung belohnt. Sein Partner ist nämlich PAAL NILSSEN-LOVE, ein geis- tesverwandter Rassler und Wühler, der Plotkin erstmals durch eine Scorch-Trio-Scheibe zu Ohren gekommen war, die ihm O'Malley auf einer Khanate-Tour vorgespielt hatte. 2011 war er dann schon Mixmaster für Hurgu!, PNLs Trommelclash mit der Gitarre von Terry Ex. Nun zieht er selber die gitarristischen Register, bei 'The Skin, The Colour' anfangs in Handarbeit, und dennoch unter der wohltönend gerifften Oberfläche schon mit Kipp- figuren aus knurrigen und orgelähnlich pfeifenden und trillernden Sounds. Beim krabbe- ligen, von PNL perkussiv aufgemischten 'Primateria' dann längst mit Loops und eskalie- renden Distortions. Und beim anfangs besonders urig angerauten 'Cock Circus' sogar mit digital forciertem Schrapnelldauerfeuer, das aber PNL nur recht zu kommen scheint, um daran seine Reaktionsschnelligkeit als Powersquasher oder Infinite Jest-scher Tennis- crack zu demonstrieren. Plotkin ist nun selbst mit jenem Gepolter und Geknatter konfron- tiert, das er beim ersten Hören für das Werk von zwei Drummern gehalten hatte. Dass es den beiden dennoch nicht im geringsten um Rekorde an Power oder Tempo geht, zeigt nach mehrfach schon souverän gegroovtem Tamtam oder auch mal chinesischem Ge- gonge das abschließende Titelstück besonders deutlich, das um entschleunigte Repeti- tionen noisige Verzierungungen funkeln lässt. So sound- und formbewusst klingt Free Rock nur bei den richtig Guten.
~ Bad Alchemy (DE)
 
Лог создания рипа
X Lossless Decoder version 20130720 (144.0)
XLD extraction logfile from 2013-10-26 00:35:42 +0400
James Plotkin, Paal Nilssen-Love / Death Rattle
Used drive : HL-DT-ST DVDRW GX30N (revision RP09)
Media type : Pressed CD
Ripper mode : XLD Secure Ripper
Disable audio cache : OK for the drive with a cache less than 1375KiB
Make use of C2 pointers : NO
Read offset correction : 6
Max retry count : 100
Gap status : Analyzed, Appended (except HTOA)
TOC of the extracted CD
Track | Start | Length | Start sector | End sector
---------------------------------------------------------
1 | 00:00:00 | 10:58:73 | 0 | 49422
2 | 10:58:73 | 12:34:04 | 49423 | 105976
3 | 23:33:02 | 12:53:15 | 105977 | 163966
4 | 36:26:17 | 10:25:38 | 163967 | 210879
AccurateRip Summary
Disc not found in AccurateRip DB.
All Tracks
Album gain : -7.92 dB
Peak : 0.977234
Statistics
Read error : 0
Jitter error (maybe fixed) : 0
Retry sector count : 0
Damaged sector count : 0
Track 01
Filename : /Users/Shared/Grabbed/James Plotkin, Paal Nilssen-Love - 2013 - Death Rattle [MP3 320]/01 - The Skin, the Colour.mp3
/Users/Shared/Grabbed/James Plotkin, Paal Nilssen-Love - 2013 - Death Rattle [MP3 V0]/01 - The Skin, the Colour.mp3
/Users/Shared/Grabbed/James Plotkin, Paal Nilssen-Love - 2013 - Death Rattle [FLAC]/01 - The Skin, the Colour.flac
Pre-gap length : 00:02:00
Track gain : -8.26 dB
Peak : 0.977234
CRC32 hash (test run) : EE083BA3
CRC32 hash : EE083BA3
CRC32 hash (skip zero) : D31D5F21
AccurateRip v1 signature : 65586986
AccurateRip v2 signature : F09F9CAA
->Track not present in AccurateRip database.
Statistics
Read error : 0
Jitter error (maybe fixed) : 0
Retry sector count : 0
Damaged sector count : 0
Track 02
Filename : /Users/Shared/Grabbed/James Plotkin, Paal Nilssen-Love - 2013 - Death Rattle [MP3 320]/02 - Primateria.mp3
/Users/Shared/Grabbed/James Plotkin, Paal Nilssen-Love - 2013 - Death Rattle [MP3 V0]/02 - Primateria.mp3
/Users/Shared/Grabbed/James Plotkin, Paal Nilssen-Love - 2013 - Death Rattle [FLAC]/02 - Primateria.flac
Pre-gap length : 00:02:02
Track gain : -7.27 dB
Peak : 0.977234
CRC32 hash (test run) : B5AA885D
CRC32 hash : B5AA885D
CRC32 hash (skip zero) : AF0BBAFF
AccurateRip v1 signature : 612DFFDD
AccurateRip v2 signature : 22B2D826
->Track not present in AccurateRip database.
Statistics
Read error : 0
Jitter error (maybe fixed) : 0
Retry sector count : 0
Damaged sector count : 0
Track 03
Filename : /Users/Shared/Grabbed/James Plotkin, Paal Nilssen-Love - 2013 - Death Rattle [MP3 320]/03 - Cock Circus.mp3
/Users/Shared/Grabbed/James Plotkin, Paal Nilssen-Love - 2013 - Death Rattle [MP3 V0]/03 - Cock Circus.mp3
/Users/Shared/Grabbed/James Plotkin, Paal Nilssen-Love - 2013 - Death Rattle [FLAC]/03 - Cock Circus.flac
Pre-gap length : 00:03:55
Track gain : -8.16 dB
Peak : 0.977234
CRC32 hash (test run) : A6CB73D6
CRC32 hash : A6CB73D6
CRC32 hash (skip zero) : 51C0BF61
AccurateRip v1 signature : 6C2A756D
AccurateRip v2 signature : 3D4135CB
->Track not present in AccurateRip database.
Statistics
Read error : 0
Jitter error (maybe fixed) : 0
Retry sector count : 0
Damaged sector count : 0
Track 04
Filename : /Users/Shared/Grabbed/James Plotkin, Paal Nilssen-Love - 2013 - Death Rattle [MP3 320]/04 - Death Rattle.mp3
/Users/Shared/Grabbed/James Plotkin, Paal Nilssen-Love - 2013 - Death Rattle [MP3 V0]/04 - Death Rattle.mp3
/Users/Shared/Grabbed/James Plotkin, Paal Nilssen-Love - 2013 - Death Rattle [FLAC]/04 - Death Rattle.flac
Pre-gap length : 00:02:53
Track gain : -6.41 dB
Peak : 0.977234
CRC32 hash (test run) : 65AC6C69
CRC32 hash : 65AC6C69
CRC32 hash (skip zero) : BC1DCBDF
AccurateRip v1 signature : 249B1931
AccurateRip v2 signature : ED628A41
->Track not present in AccurateRip database.
Statistics
Read error : 0
Jitter error (maybe fixed) : 0
Retry sector count : 0
Damaged sector count : 0
No errors occurred
End of status report
-----BEGIN XLD SIGNATURE-----
mWzHaXvBuTGDGxCzxLA0lhxy_MFyIsD0zbrzPyME5PzJgJ6WvaUXSBokqezfsq6nBhVFC2RjH9Omv9kEdkwtVPgn4JJ1AOipII0OGdW
-----END XLD SIGNATURE-----
 
Содержание индексной карты (.CUE)
TITLE "Death Rattle"
PERFORMER "James Plotkin, Paal Nilssen-Love"
REM GENRE "Free Jazz"
REM DATE "2013"
REM DISCID 2C0AFB04
REM REPLAYGAIN_ALBUM_GAIN -7.92 dB
REM REPLAYGAIN_ALBUM_PEAK 0.977234
FILE "01 - The Skin, the Colour.flac" WAVE
TRACK 01 AUDIO
TITLE "The Skin, the Colour"
PERFORMER "James Plotkin, Paal Nilssen-Love"
ISRC NOFGR1348010
REM REPLAYGAIN_TRACK_GAIN -8.26 dB
REM REPLAYGAIN_TRACK_PEAK 0.977234
INDEX 01 00:00:00
TRACK 02 AUDIO
TITLE "Primateria"
PERFORMER "James Plotkin, Paal Nilssen-Love"
ISRC NOFGR1348020
REM REPLAYGAIN_TRACK_GAIN -7.27 dB
REM REPLAYGAIN_TRACK_PEAK 0.977234
INDEX 00 10:56:71
FILE "02 - Primateria.flac" WAVE
INDEX 01 00:00:00
TRACK 03 AUDIO
TITLE "Cock Circus"
PERFORMER "James Plotkin, Paal Nilssen-Love"
ISRC NOFGR1348030
REM REPLAYGAIN_TRACK_GAIN -8.16 dB
REM REPLAYGAIN_TRACK_PEAK 0.977234
INDEX 00 12:30:24
FILE "03 - Cock Circus.flac" WAVE
INDEX 01 00:00:00
TRACK 04 AUDIO
TITLE "Death Rattle"
PERFORMER "James Plotkin, Paal Nilssen-Love"
ISRC NOFGR1348040
REM REPLAYGAIN_TRACK_GAIN -6.41 dB
REM REPLAYGAIN_TRACK_PEAK 0.977234
INDEX 00 12:50:37
FILE "04 - Death Rattle.flac" WAVE
INDEX 01 00:00:00
 
auCDtect Task Manager
-----------------------
DON'T MODIFY THIS FILE
-----------------------
PERFORMER: auCDtect Task Manager, ver. 1.5.1RC6 build 1.5.1.7
Copyright (c) 2008-2010 y-soft. All rights reserved
http://y-soft.org
ANALYZER: auCDtect: CD records authenticity detector, version 0.8.2
Copyright (c) 2004 Oleg Berngardt. All rights reserved.
Copyright (c) 2004 Alexander Djourik. All rights reserved.
FILE: 04 - Death Rattle.flac
Size: 57980582 Hash: 8DEE5C02EBB380901D30BA275C7353B2 Accuracy: -m0
Conclusion: CDDA 99%
Signature: E29AEEE38F00B044DDAC2BFECDB3344A5AF303A3
FILE: 03 - Cock Circus.flac
Size: 88604065 Hash: 1503E7F48F00C3AF509F441CC62AF28E Accuracy: -m0
Conclusion: CDDA 100%
Signature: 6B0FD4A3AC47B56D4816A525757946FE629435A7
FILE: 02 - Primateria.flac
Size: 88123976 Hash: 5950DEF1141158B0D9B8046F771841E5 Accuracy: -m0
Conclusion: CDDA 100%
Signature: F671EE6E1CFAAD36A78A8A33B3C4A3EED68D6257
FILE: 01 - The Skin, the Colour.flac
Size: 79304858 Hash: DB30412F61CE6E1A7104807A0EBA33DE Accuracy: -m0
Conclusion: CDDA 100%
Signature: F2F90CE6EF8F6911B3D39C5DC16DA00F82751C47
... релизы с участием PAAL NILSSEN-LOVE на трекере ...
Any questions -> support@pro-jazz.com. По всем вопросам пишите -> support@pro-jazz.com
21:32
213
Нет комментариев. Ваш будет первым!