Вы используете незарегистрированную версию компонента "Вкладки"!

Поиск

(Avant-Garde Jazz, Jazzcore, Noise) [CD] Weasel Walter (w/ Peter Evans, Mary Halvorson, Darius Jones, Alex Ward) - Ominous Telepathic Mayhem - 2011, FLAC (tracks+.cue), lossless

(Avant-Garde Jazz, Jazzcore, Noise) [CD] Weasel Walter (w/ Peter Evans, Mary Halvorson, Darius Jones, Alex Ward) - Ominous Telepathic Mayhem - 2011, FLAC (tracks+.cue), lossless
Треклист:
Weasel Walter / Ominous Telepathic Mayhem
Жанр: Avant-Garde Jazz, Jazzcore, Noise
Носитель: CD
Страна-производитель диска: US
Год издания: 2011
Издатель (лейбл): ugEXPLODE
Номер по каталогу: ug51
Страна: US
Аудиокодек: FLAC (*.flac)
Тип рипа: tracks+.cue
Битрейт аудио: lossless
Продолжительность: 71:51
Источник (релизер): waffles.fm, tetroid
Наличие сканов в содержимом раздачи:
Треклист:
1 Showering With Beer 8:16
2 Grannytram 6:45
3 Free Sometimes Rules 6:56
4 Let's Get 'Em 4:53
5 HOGS 7:22
6 Clarity 7:51
7 Oracle 11:25
8 Non-Alignment Pact 5:19
9 Final Solution 7:55
10 30 Seconds Over Tokyo 4:38
 
Лог создания рипа
Exact Audio Copy V1.0 beta 3 from 29. August 2011
EAC extraction logfile from 24. July 2013, 10:40
Weasel Walter with Peter Evans, Mary Halvorson, Darius Jones and Alex Ward / Ominous Telepathic Mayhem
Used drive : LITE-ON DVD SOHD-16P9S Adapter: 0 ID: 0
Read mode : Secure
Utilize accurate stream : Yes
Defeat audio cache : Yes
Make use of C2 pointers : No
Read offset correction : 6
Overread into Lead-In and Lead-Out : No
Fill up missing offset samples with silence : Yes
Delete leading and trailing silent blocks : No
Null samples used in CRC calculations : Yes
Used interface : Native Win32 interface for Win NT & 2000
Gap handling : Appended to previous track
Used output format : User Defined Encoder
Selected bitrate : 1024 kBit/s
Quality : High
Add ID3 tag : No
Command line compressor : C:\EAC\Exact Audio Copy\FLAC\flac.exe
Additional command line options : -8 -V -T "ARTIST=%artist%" -T "TITLE=%title%" -T "ALBUM=%albumtitle%" -T "DATE=%year%" -T "TRACKNUMBER=%tracknr%" -T "GENRE=%genre%" -T "PERFORMER=%albuminterpret%" -T "COMPOSER=%composer%" %haslyrics%--tag-from-file=LYRICS="%lyricsfile%"%haslyrics% -T "ALBUMARTIST=%albumartist%" -T "DISCNUMBER=%cdnumber%" -T "TOTALDISCS=%totalcds%" -T "TOTALTRACKS=%numtracks%" -T "COMMENT=%comment%" %source% -o %dest%
TOC of the extracted CD
Track | Start | Length | Start sector | End sector
---------------------------------------------------------
1 | 0:00.00 | 8:20.02 | 0 | 37501
2 | 8:20.02 | 6:47.53 | 37502 | 68079
3 | 15:07.55 | 6:59.09 | 68080 | 99513
4 | 22:06.64 | 4:54.55 | 99514 | 121618
5 | 27:01.44 | 7:25.55 | 121619 | 155048
6 | 34:27.24 | 7:55.30 | 155049 | 190703
7 | 42:22.54 | 11:28.70 | 190704 | 242373
8 | 53:51.49 | 5:22.72 | 242374 | 266595
9 | 59:14.46 | 7:58.02 | 266596 | 302447
10 | 67:12.48 | 4:38.67 | 302448 | 323364
Track 1
Filename C:\EAC-rips\Weasel Walter - Ominous Telepathic Mayhem (2011) [FLAC]\01 - Weasel Walter, Peter Evans - Showering with Beer.wav
Pre-gap length 0:00:02.00
Peak level 94.4 %
Extraction speed 2.2 X
Track quality 100.0 %
Test CRC DC014AAA
Copy CRC DC014AAA
Accurately ripped (confidence 1) [76619789] (AR v2)
Copy OK
Track 2
Filename C:\EAC-rips\Weasel Walter - Ominous Telepathic Mayhem (2011) [FLAC]\02 - Weasel Walter, Peter Evans - Grannytram.wav
Pre-gap length 0:00:03.70
Peak level 94.4 %
Extraction speed 2.2 X
Track quality 99.9 %
Test CRC BE7A0250
Copy CRC BE7A0250
Accurately ripped (confidence 1) [95AD2247] (AR v2)
Copy OK
Track 3
Filename C:\EAC-rips\Weasel Walter - Ominous Telepathic Mayhem (2011) [FLAC]\03 - Weasel Walter, Mary Halvorson - Free Sometimes Rules.wav
Pre-gap length 0:00:02.84
Peak level 94.4 %
Extraction speed 2.8 X
Track quality 100.0 %
Test CRC 8A0A0E35
Copy CRC 8A0A0E35
Accurately ripped (confidence 1) [86C8F25F] (AR v2)
Copy OK
Track 4
Filename C:\EAC-rips\Weasel Walter - Ominous Telepathic Mayhem (2011) [FLAC]\04 - Weasel Walter, Mary Halvorson - Let's Get 'em.wav
Pre-gap length 0:00:03.02
Peak level 94.4 %
Extraction speed 2.9 X
Track quality 100.0 %
Test CRC 1F226D68
Copy CRC 1F226D68
Accurately ripped (confidence 1) [297C18DC] (AR v2)
Copy OK
Track 5
Filename C:\EAC-rips\Weasel Walter - Ominous Telepathic Mayhem (2011) [FLAC]\05 - Weasel Walter, Mary Halvorson - Hogs.wav
Pre-gap length 0:00:01.60
Peak level 94.4 %
Extraction speed 3.2 X
Track quality 100.0 %
Test CRC 4B5C8108
Copy CRC 4B5C8108
Accurately ripped (confidence 1) [D335D1D4] (AR v2)
Copy OK
Track 6
Filename C:\EAC-rips\Weasel Walter - Ominous Telepathic Mayhem (2011) [FLAC]\06 - Weasel Walter, Darius Jones - Clarity.wav
Pre-gap length 0:00:02.21
Peak level 94.4 %
Extraction speed 3.1 X
Track quality 99.9 %
Test CRC A0CFFE74
Copy CRC A0CFFE74
Accurately ripped (confidence 1) [EA42339D] (AR v2)
Copy OK
Track 7
Filename C:\EAC-rips\Weasel Walter - Ominous Telepathic Mayhem (2011) [FLAC]\07 - Weasel Walter, Darius Jones - Oracle.wav
Pre-gap length 0:00:02.93
Peak level 94.4 %
Extraction speed 3.8 X
Track quality 100.0 %
Test CRC DED1748B
Copy CRC DED1748B
Accurately ripped (confidence 1) [D15618CB] (AR v2)
Copy OK
Track 8
Filename C:\EAC-rips\Weasel Walter - Ominous Telepathic Mayhem (2011) [FLAC]\08 - Weasel Walter, Alex Ward - Non-Alignment Pact.wav
Pre-gap length 0:00:02.09
Peak level 94.4 %
Extraction speed 3.8 X
Track quality 100.0 %
Test CRC 77BF1F41
Copy CRC 77BF1F41
Accurately ripped (confidence 1) [848B5D24] (AR v2)
Copy OK
Track 9
Filename C:\EAC-rips\Weasel Walter - Ominous Telepathic Mayhem (2011) [FLAC]\09 - Weasel Walter, Alex Ward - Final Solution.wav
Pre-gap length 0:00:03.25
Peak level 94.4 %
Extraction speed 4.2 X
Track quality 100.0 %
Test CRC E185AB9C
Copy CRC E185AB9C
Accurately ripped (confidence 1) [67E57FAA] (AR v2)
Copy OK
Track 10
Filename C:\EAC-rips\Weasel Walter - Ominous Telepathic Mayhem (2011) [FLAC]\10 - Weasel Walter, Alex Ward - 30 Seconds Over Tokyo.wav
Pre-gap length 0:00:02.37
Peak level 94.4 %
Extraction speed 3.4 X
Track quality 99.9 %
Test CRC 46881E84
Copy CRC 46881E84
Accurately ripped (confidence 1) [97F26494] (AR v2)
Copy OK
All tracks accurately ripped
No errors occurred
End of status report
---- CUETools DB Plugin V2.1.3
[CTDB TOCID: vDoBMODp8ITWHCgkMY7ikgSt44g-] found, Submit result: vDoBMODp8ITWHCgkMY7ikgSt44g- has been confirmed
[c2dd87cf] (1/1) Accurately ripped
==== Log checksum CFBD5C064255C7F7992BFE91AF4E8C8F9EFB9FF4C95CF8058D08B7C6F128B4B3 ====
 
Содержание индексной карты (.CUE)
REM GENRE Jazz
REM DATE 2011
REM DISCID 7E10D70A
REM COMMENT "ExactAudioCopy v1.0b3"
PERFORMER "Weasel Walter with Peter Evans, Mary Halvorson, Darius Jones and Alex Ward"
TITLE "Ominous Telepathic Mayhem"
FILE "01 - Weasel Walter, Peter Evans - Showering with Beer.wav" WAVE
TRACK 01 AUDIO
TITLE "Showering with Beer"
PERFORMER "Weasel Walter, Peter Evans"
INDEX 01 00:00:00
TRACK 02 AUDIO
TITLE "Grannytram"
PERFORMER "Weasel Walter, Peter Evans"
INDEX 00 08:16:24
FILE "02 - Weasel Walter, Peter Evans - Grannytram.wav" WAVE
INDEX 01 00:00:00
TRACK 03 AUDIO
TITLE "Free Sometimes Rules"
PERFORMER "Weasel Walter, Mary Halvorson"
INDEX 00 06:44:65
FILE "03 - Weasel Walter, Mary Halvorson - Free Sometimes Rules.wav" WAVE
INDEX 01 00:00:00
TRACK 04 AUDIO
TITLE "Let's Get 'em"
PERFORMER "Weasel Walter, Mary Halvorson"
INDEX 00 06:56:07
FILE "04 - Weasel Walter, Mary Halvorson - Let's Get 'em.wav" WAVE
INDEX 01 00:00:00
TRACK 05 AUDIO
TITLE "Hogs"
PERFORMER "Weasel Walter, Mary Halvorson"
INDEX 00 04:53:10
FILE "05 - Weasel Walter, Mary Halvorson - Hogs.wav" WAVE
INDEX 01 00:00:00
TRACK 06 AUDIO
TITLE "Clarity"
PERFORMER "Weasel Walter, Darius Jones"
INDEX 00 07:23:39
FILE "06 - Weasel Walter, Darius Jones - Clarity.wav" WAVE
INDEX 01 00:00:00
TRACK 07 AUDIO
TITLE "Oracle"
PERFORMER "Weasel Walter, Darius Jones"
INDEX 00 07:52:35
FILE "07 - Weasel Walter, Darius Jones - Oracle.wav" WAVE
INDEX 01 00:00:00
TRACK 08 AUDIO
TITLE "Non-Alignment Pact"
PERFORMER "Weasel Walter, Alex Ward"
INDEX 00 11:26:63
FILE "08 - Weasel Walter, Alex Ward - Non-Alignment Pact.wav" WAVE
INDEX 01 00:00:00
TRACK 09 AUDIO
TITLE "Final Solution"
PERFORMER "Weasel Walter, Alex Ward"
INDEX 00 05:19:53
FILE "09 - Weasel Walter, Alex Ward - Final Solution.wav" WAVE
INDEX 01 00:00:00
TRACK 10 AUDIO
TITLE "30 Seconds Over Tokyo"
PERFORMER "Weasel Walter, Alex Ward"
INDEX 00 07:55:49
FILE "10 - Weasel Walter, Alex Ward - 30 Seconds Over Tokyo.wav" WAVE
INDEX 01 00:00:00
 
Лог проверки качества
d:\>d:\aucdtect -d/-m0 d:\zzz\*.wav
auCDtect: CD records authenticity detector, version 0.8.2
Copyright (c) 2004 Oleg Berngardt. All rights reserved.
Copyright (c) 2004 Alexander Djourik. All rights reserved.
------------------------------------------------------------
Processing file: [01. Showering with Beer.wav]
------------------------------------------------------------
This track looks like CDDA with probability 100%
------------------------------------------------------------
Processing file: [02. Grannytram.wav]
------------------------------------------------------------
This track looks like CDDA with probability 100%
------------------------------------------------------------
Processing file: [03. Free Sometimes Rules.wav]
------------------------------------------------------------
This track looks like CDDA with probability 100%
------------------------------------------------------------
Processing file: [04. Let's Get 'em.wav]
------------------------------------------------------------
This track looks like CDDA with probability 100%
------------------------------------------------------------
Processing file: [05. Hogs.wav]
------------------------------------------------------------
This track looks like CDDA with probability 100%
------------------------------------------------------------
Processing file: [06. Clarity.wav]
------------------------------------------------------------
This track looks like CDDA with probability 100%
------------------------------------------------------------
Processing file: [07. Oracle.wav]
------------------------------------------------------------
This track looks like CDDA with probability 99%
------------------------------------------------------------
Processing file: [08. Non-Alignment Pact.wav]
------------------------------------------------------------
This track looks like CDDA with probability 100%
------------------------------------------------------------
Processing file: [09. Final Solution.wav]
------------------------------------------------------------
This track looks like CDDA with probability 100%
------------------------------------------------------------
Processing file: [10. 30 Seconds Over Tokyo.wav]
------------------------------------------------------------
This track looks like CDDA with probability 100%
------------------------------------------------------------
Final Conclusion:
------------------------------------------------------------
These tracks looks like CDDA with probability 100%
Доп. информация:
 
Squid's Ear Review
Since he first hit as part of the burgeoning Chicago scene in early '90s, Weasel Walter has been an omnivorous force, blurring boundaries between his musical passions based equally in free jazz, No Wave, and noise metal. Since moving to Brooklyn a few years back, he's been able to regularly join forces with a broad range of musicians from veterans like Marc Edwards to Peter Evans and Mary Halvorson (with whom he recorded a solid trio excursion for Thirsty Ear.) This round-up, on his ugEXPLODE label, captures a series of duets recorded between 2008 and 2011 with Weasel on drums pairing off with Evans, Halvorson, alto saxophonist Darius Jones, and London-based guitarist/clarinetist Alex Ward.
The first duo with Evans starts out in a familiar free jazz vein, with the trumpet player's flurries and smears dive-bombing against Weasel's crashing cascades. While certainly informed by the vocabulary mined by Cherry and Blackwell or Bowie and Philip Wilson, the improvisations have a rambunctious edge fueled as much by a rock momentum as by tuned polyrhythms, as well as a propensity to explode into shuddering fields of noise (I dare anyone to peg Evans' amped and overblown instrument as a trumpet when he starts shredding midway through the first cut.) The three improvisations with Halvorson are more angular, splintered affairs, though she too pulls out raw agitated, overdriven distortion that gets tossed in with dark buzzing chords and fractured, twanging guitar and jangling harmonics. At times, the interactions sound a bit tentative, as if the two are feeling out which direction to move, but there's still plenty of spirited energy to carry things through. In many ways, Darius Jones is the most tradition-bound of his partners, hefting a burly alto tone and vocalized phrasing against his partner's clattering undertow, which brings out a caterwauling rhythmic flow to their pieces.
Certainly one of the highlights of the recording is the energy fueled sparring with Alex Ward. The three pieces use Pere Ubu tune names but have no particular allegiance to the Cleveland band's themes. For the first piece, Ward straps on his electric guitar and unleashes peals of flayed outbursts against thundering, stomping salvos of Weasel's drums. Next up, Ward goads his partner along with searing clarinet playing (some of the most incendiary playing of his I've heard.) Things finish out with skirling shreds of clarinet and Weasel using a reed mouthpiece, ducking and weaving against spattered drums, which then explodes with fusillades of electric guitar squall. While a bit uneven, this recording serves as an effective scrapbook of a restless mind at work with some like-minded collaborators.
 
Состав
Alto Saxophone – Darius Jones (tracks: 6, 7)
Drums – Weasel Walter
Guitar – Mary Halvorson (tracks: 3, 4, 5)
Guitar, Clarinet – Alex Ward (5) (tracks: 8, 9, 10)
Trumpet – Peter Evans (2) (tracks: 1. 2)
Tracks 1 and 2 recorded September 22, 2008.
Tracks 3 through 5 recorded March 7, 2009.
Tracks 6 and 7 recorded August 23, 2010.
Tracks 8 through 10 recorded July 2, 2011.
По всем вопросам пишите личное сообщение пользователю M0p94ok.
21:29
128
Нет комментариев. Ваш будет первым!