Вы используете незарегистрированную версию компонента "Вкладки"!

Поиск

(free jazz, post-bop) [cd] Achille Succi - Shiva's Dance (2003) {Artesuono}, FLAC (tracks+.cue), lossless

(free jazz, post-bop) [cd] Achille Succi - Shiva's Dance (2003) {Artesuono}, FLAC (tracks+.cue), lossless
Треклист:
(free jazz, post-bop) [cd] Achille Succi - Shiva's Dance (2003) {Artesuono}, FLAC (tracks+.cue), lossless


Achille Succi - Shiva's Dance (2003) {Artesuono}

Жанр: free jazz, post-bop
Год выпуска: 2003
Издатель (лейбл):Artesuono/art019
Формат: FLAC (tracks+.cue)
Битрейт аудио: lossless
Продолжительность 1`00`38
Источник: what.cd
Achille Succi: alto sax, bass clarinet
Ralph Alessi: trumpet
Andrea Dulbecco: vibes
Salvatore Maiore: bass
Massimo Manzi: drums

tracks

1 Anthropofagy 5:07
2 Bill Frisell 4:23
3 Shiva's Dance 7:08
4 Momo 4:47
5 Pocahontas 7:43
6 Morpheus 9:19
7 Night Lines 2:46
8 Ping Pong 5:35
9 Eu Gosto 8:14
10 Momo Reprise 5:10


 
.log
Exact Audio Copy V1.0 beta 2 from 29. April 2011
EAC extraction logfile from 18. October 2013, 19:22
Achille Succi / Shiva's Dance
Used drive : HL-DT-STDVDRAM GH24NS50 Adapter: 0 ID: 0
Read mode : Secure
Utilize accurate stream : Yes
Defeat audio cache : Yes
Make use of C2 pointers : No
Read offset correction : 667
Overread into Lead-In and Lead-Out : No
Fill up missing offset samples with silence : Yes
Delete leading and trailing silent blocks : No
Null samples used in CRC calculations : Yes
Used interface : Installed external ASPI interface
Gap handling : Appended to previous track
Used output format : User Defined Encoder
Selected bitrate : 768 kBit/s
Quality : High
Add ID3 tag : No
Command line compressor : E:\Programmi\Exact Audio Copy\Flac\flac.exe
Additional command line options : -8 -V -T "ARTIST=%artist%" -T "TITLE=%title%" -T "ALBUM=%albumtitle%" -T "DATE=%year%" -T "TRACKNUMBER=%tracknr%" -T "TOTALTRACKS=%numtracks%" -T "GENRE=%genre%" -T "ALBUMARTIST=%albumartist%" -T "ALBUM ARTIST=%albumartist%
TOC of the extracted CD
Track | Start | Length | Start sector | End sector
---------------------------------------------------------
1 | 0:00.00 | 5:09.54 | 0 | 23228
2 | 5:09.54 | 4:25.72 | 23229 | 43175
3 | 9:35.51 | 7:11.16 | 43176 | 75516
4 | 16:46.67 | 4:49.49 | 75517 | 97240
5 | 21:36.41 | 7:45.52 | 97241 | 132167
6 | 29:22.18 | 9:22.05 | 132168 | 174322
7 | 38:44.23 | 2:48.56 | 174323 | 186978
8 | 41:33.04 | 5:37.44 | 186979 | 212297
9 | 47:10.48 | 8:17.17 | 212298 | 249589
10 | 55:27.65 | 5:10.45 | 249590 | 272884
Track 1
Filename C:\Documents and Settings\user\Desktop\Achille Succi - Shiva's Dance (2003) [FLAC] {Artesuono}\01 - Anthropofagy.wav
Pre-gap length 0:00:02.00
Peak level 99.9 %
Extraction speed 0.9 X
Track quality 99.9 %
Test CRC 1B751B06
Copy CRC 1B751B06
Track not present in AccurateRip database
Copy OK
Track 2
Filename C:\Documents and Settings\user\Desktop\Achille Succi - Shiva's Dance (2003) [FLAC] {Artesuono}\02 - Bill Frisell.wav
Pre-gap length 0:00:02.00
Peak level 100.0 %
Extraction speed 1.0 X
Track quality 99.9 %
Test CRC E54AD502
Copy CRC E54AD502
Track not present in AccurateRip database
Copy OK
Track 3
Filename C:\Documents and Settings\user\Desktop\Achille Succi - Shiva's Dance (2003) [FLAC] {Artesuono}\03 - Shiva's Dance.wav
Pre-gap length 0:00:02.00
Peak level 99.9 %
Extraction speed 1.4 X
Track quality 100.0 %
Test CRC 34E236C4
Copy CRC 34E236C4
Track not present in AccurateRip database
Copy OK
Track 4
Filename C:\Documents and Settings\user\Desktop\Achille Succi - Shiva's Dance (2003) [FLAC] {Artesuono}\04 - Momo.wav
Pre-gap length 0:00:02.00
Peak level 100.0 %
Extraction speed 1.5 X
Track quality 100.0 %
Test CRC A390717C
Copy CRC A390717C
Track not present in AccurateRip database
Copy OK
Track 5
Filename C:\Documents and Settings\user\Desktop\Achille Succi - Shiva's Dance (2003) [FLAC] {Artesuono}\05 - Pocahontas.wav
Pre-gap length 0:00:02.00
Peak level 99.9 %
Extraction speed 1.7 X
Track quality 100.0 %
Test CRC 4D8489E2
Copy CRC 4D8489E2
Track not present in AccurateRip database
Copy OK
Track 6
Filename C:\Documents and Settings\user\Desktop\Achille Succi - Shiva's Dance (2003) [FLAC] {Artesuono}\06 - Morpheus.wav
Pre-gap length 0:00:02.00
Peak level 100.0 %
Extraction speed 1.7 X
Track quality 99.9 %
Test CRC 23DB0E45
Copy CRC 23DB0E45
Track not present in AccurateRip database
Copy OK
Track 7
Filename C:\Documents and Settings\user\Desktop\Achille Succi - Shiva's Dance (2003) [FLAC] {Artesuono}\07 - Night Lines.wav
Pre-gap length 0:00:02.00
Peak level 99.9 %
Extraction speed 1.7 X
Track quality 100.0 %
Test CRC 9552E754
Copy CRC 9552E754
Track not present in AccurateRip database
Copy OK
Track 8
Filename C:\Documents and Settings\user\Desktop\Achille Succi - Shiva's Dance (2003) [FLAC] {Artesuono}\08 - Ping Pong.wav
Pre-gap length 0:00:01.74
Peak level 99.9 %
Extraction speed 2.0 X
Track quality 100.0 %
Test CRC 6347248A
Copy CRC 6347248A
Track not present in AccurateRip database
Copy OK
Track 9
Filename C:\Documents and Settings\user\Desktop\Achille Succi - Shiva's Dance (2003) [FLAC] {Artesuono}\09 - Eu gosto.wav
Pre-gap length 0:00:02.00
Peak level 99.9 %
Extraction speed 2.2 X
Track quality 100.0 %
Test CRC 6D5DCE8E
Copy CRC 6D5DCE8E
Track not present in AccurateRip database
Copy OK
Track 10
Filename C:\Documents and Settings\user\Desktop\Achille Succi - Shiva's Dance (2003) [FLAC] {Artesuono}\10 - Momo Reprise.wav
Pre-gap length 0:00:02.00
Peak level 99.9 %
Extraction speed 2.2 X
Track quality 100.0 %
Test CRC ACD2FDAD
Copy CRC ACD2FDAD
Track not present in AccurateRip database
Copy OK
None of the tracks are present in the AccurateRip database
No errors occurred
End of status report
==== Log checksum 5653A59CF670720FF8B8A1D30D81FF50753CF1FE013FAE04DD7E89109F8383BD ====
 
.cue
REM GENRE Jazz
REM DATE 2003
REM DISCID 8A0E360A
REM COMMENT "ExactAudioCopy v1.0b2"
PERFORMER "Achille Succi"
TITLE "Shiva's Dance"
FILE "01 - Anthropofagy.wav" WAVE
TRACK 01 AUDIO
TITLE "Anthropofagy"
PERFORMER "Achille Succi"
INDEX 01 00:00:00
TRACK 02 AUDIO
TITLE "Bill Frisell"
PERFORMER "Achille Succi"
INDEX 00 05:07:54
FILE "02 - Bill Frisell.wav" WAVE
INDEX 01 00:00:00
TRACK 03 AUDIO
TITLE "Shiva's Dance"
PERFORMER "Achille Succi"
INDEX 00 04:23:72
FILE "03 - Shiva's Dance.wav" WAVE
INDEX 01 00:00:00
TRACK 04 AUDIO
TITLE "Momo"
PERFORMER "Achille Succi"
INDEX 00 07:09:16
FILE "04 - Momo.wav" WAVE
INDEX 01 00:00:00
TRACK 05 AUDIO
TITLE "Pocahontas"
PERFORMER "Achille Succi"
INDEX 00 04:47:49
FILE "05 - Pocahontas.wav" WAVE
INDEX 01 00:00:00
TRACK 06 AUDIO
TITLE "Morpheus"
PERFORMER "Achille Succi"
INDEX 00 07:43:52
FILE "06 - Morpheus.wav" WAVE
INDEX 01 00:00:00
TRACK 07 AUDIO
TITLE "Night Lines"
PERFORMER "Achille Succi"
INDEX 00 09:20:05
FILE "07 - Night Lines.wav" WAVE
INDEX 01 00:00:00
TRACK 08 AUDIO
TITLE "Ping Pong"
PERFORMER "Achille Succi"
INDEX 00 02:46:57
FILE "08 - Ping Pong.wav" WAVE
INDEX 01 00:00:00
TRACK 09 AUDIO
TITLE "Eu gosto"
PERFORMER "Achille Succi"
INDEX 00 05:35:44
FILE "09 - Eu gosto.wav" WAVE
INDEX 01 00:00:00
TRACK 10 AUDIO
TITLE "Momo Reprise"
PERFORMER "Achille Succi"
INDEX 00 08:15:17
FILE "10 - Momo Reprise.wav" WAVE
INDEX 01 00:00:00
http://www.discogs.com/Achille-Succi-Shivas-Dance/release/6311979
другие релизы
По всем вопросам пишите личное сообщение пользователю M0p94ok.
18:40
199
Нет комментариев. Ваш будет первым!