Вы используете незарегистрированную версию компонента "Вкладки"!

Поиск

(Avant-Garde Jazz, Modern Free) [CD] Peter Janson - Nordic Meeting - 2001, FLAC (tracks+.cue), lossless

(Avant-Garde Jazz, Modern Free) [CD] Peter Janson - Nordic Meeting - 2001, FLAC (tracks+.cue), lossless
Треклист:
Peter Janson - Nordic Meeting
Жанр: Avant-Garde Jazz, Modern Free
Носитель: CD
Страна-производитель диска (релиза): Швеция
Год издания: 2001
Издатель (лейбл): Dragon Records
Номер по каталогу: DRCD 353
Аудиокодек: FLAC (*.flac)
Тип рипа: tracks+.cue
Битрейт аудио: lossless
Продолжительность: 68:02
Источник (релизер): wilfried (what)
Наличие сканов в содержимом раздачи: да
Треклист:
01. Intro (Kotter-Huke-Janson) - 2:14
02. Chicken Parade (Janson) - 5:51
03. Afro Five (Janson) - 9:03
04. Varmlandsvisan (Trad.) - 2:39
05. Trallart (Janson) - 8:42
06. Teen Spleen (Janson) - 4:28
07. Nina (Janson) - 8:10
08. Kor (Janson) - 4:51
09. 239-240 (Janson) - 8:28
10. Tung (Janson) - 13:36
Состав:
Anders Bergcrantz - trumpet
John Surman - soprano saxophone, baritone saxophone, bass clarinet
Jorg Huke - trombone
Tommy Kotter - piano
Peter Janson - bass
Alex Riel - drums
Recorded at the Swedish Radio, Gothenburg on January 10-12, 1999.
 
Лог создания рипа
Exact Audio Copy V1.1 from 23. June 2015
EAC extraction logfile from 16. January 2016, 22:39
Peter Janson / Nordic Meeting
Used drive : HL-DT-STBD-RE BH16NS40 Adapter: 1 ID: 1
Read mode : Secure
Utilize accurate stream : Yes
Defeat audio cache : Yes
Make use of C2 pointers : No
Read offset correction : 6
Overread into Lead-In and Lead-Out : No
Fill up missing offset samples with silence : Yes
Delete leading and trailing silent blocks : No
Null samples used in CRC calculations : Yes
Used interface : Native Win32 interface for Win NT & 2000
Gap handling : Appended to previous track
Used output format : User Defined Encoder
Selected bitrate : 896 kBit/s
Quality : High
Add ID3 tag : No
Command line compressor : C:\Bin\flac.exe
Additional command line options : -8 -V -T "ARTIST=%artist%" -T "TITLE=%title%" -T "ALBUM=%albumtitle%" -T "DATE=%year%" -T "TRACKNUMBER=%tracknr%" -T "GENRE=%genre%" -T "PERFORMER=%albuminterpret%" -T "COMPOSER=%composer%" %haslyrics%--tag-from-file=LYRICS="%lyricsfile%"%haslyrics% -T "ALBUMARTIST=%albumartist%" -T "DISCNUMBER=%cdnumber%" -T "TOTALDISCS=%totalcds%" -T "TOTALTRACKS=%numtracks%" -T "COMMENT=%comment%" %source% -o %dest%
TOC of the extracted CD
Track | Start | Length | Start sector | End sector
---------------------------------------------------------
1 | 0:00.00 | 2:14.17 | 0 | 10066
2 | 2:14.17 | 5:50.68 | 10067 | 36384
3 | 8:05.10 | 9:02.55 | 36385 | 77089
4 | 17:07.65 | 2:38.45 | 77090 | 88984
5 | 19:46.35 | 8:42.22 | 88985 | 128156
6 | 28:28.57 | 4:28.35 | 128157 | 148291
7 | 32:57.17 | 8:10.13 | 148292 | 185054
8 | 41:07.30 | 4:50.60 | 185055 | 206864
9 | 45:58.15 | 8:28.02 | 206865 | 244966
10 | 54:26.17 | 13:36.05 | 244967 | 306171
Track 1
Filename D:\EAC\2\01 - Intro.wav
Pre-gap length 0:00:02.00
Peak level 100.0 %
Extraction speed 1.2 X
Track quality 100.0 %
Test CRC B68168C2
Copy CRC B68168C2
Accurately ripped (confidence 1) [C2EDDFAD] (AR v2)
Copy OK
Track 2
Filename D:\EAC\2\02 - Chicken Parade.wav
Peak level 100.0 %
Extraction speed 1.0 X
Track quality 99.9 %
Test CRC 16EF5A1E
Copy CRC 16EF5A1E
Accurately ripped (confidence 1) [F34D0EF5] (AR v2)
Copy OK
Track 3
Filename D:\EAC\2\03 - Afro Five.wav
Pre-gap length 0:00:02.30
Peak level 100.0 %
Extraction speed 1.4 X
Track quality 100.0 %
Test CRC 3F3C79DB
Copy CRC 3F3C79DB
Accurately ripped (confidence 1) [118246B0] (AR v2)
Copy OK
Track 4
Filename D:\EAC\2\04 - Varmlandsvisan.wav
Pre-gap length 0:00:03.26
Peak level 86.7 %
Extraction speed 1.3 X
Track quality 100.0 %
Test CRC CAA14515
Copy CRC CAA14515
Accurately ripped (confidence 1) [3B48CAB5] (AR v2)
Copy OK
Track 5
Filename D:\EAC\2\05 - Trallart.wav
Peak level 100.0 %
Extraction speed 1.6 X
Track quality 100.0 %
Test CRC 3480E807
Copy CRC 3480E807
Accurately ripped (confidence 1) [189C9403] (AR v2)
Copy OK
Track 6
Filename D:\EAC\2\06 - Teen Spleen.wav
Pre-gap length 0:00:02.29
Peak level 100.0 %
Extraction speed 1.7 X
Track quality 100.0 %
Test CRC 22DB5BE7
Copy CRC 22DB5BE7
Accurately ripped (confidence 1) [B5A5DD2F] (AR v2)
Copy OK
Track 7
Filename D:\EAC\2\07 - Nina.wav
Pre-gap length 0:00:03.73
Peak level 100.0 %
Extraction speed 1.8 X
Track quality 100.0 %
Test CRC 36AC3046
Copy CRC 36AC3046
Accurately ripped (confidence 1) [DF258DE0] (AR v2)
Copy OK
Track 8
Filename D:\EAC\2\08 - Kor.wav
Peak level 100.0 %
Extraction speed 1.7 X
Track quality 99.9 %
Test CRC C4B40EB9
Copy CRC C4B40EB9
Accurately ripped (confidence 1) [3A19BEA8] (AR v2)
Copy OK
Track 9
Filename D:\EAC\2\09 - 239-240.wav
Pre-gap length 0:00:02.24
Peak level 100.0 %
Extraction speed 2.1 X
Track quality 100.0 %
Test CRC 616FE011
Copy CRC 616FE011
Accurately ripped (confidence 1) [1BE215FF] (AR v2)
Copy OK
Track 10
Filename D:\EAC\2\10 - Tung.wav
Pre-gap length 0:00:01.33
Peak level 100.0 %
Extraction speed 1.5 X
Track quality 99.9 %
Test CRC 911E0840
Copy CRC 911E0840
Accurately ripped (confidence 1) [91975135] (AR v2)
Copy OK
All tracks accurately ripped
No errors occurred
End of status report
---- CUETools DB Plugin V2.1.6
[CTDB TOCID: pgCv6gKSNxiJpJRVZbGsesYgKI8-] disk not present in database
Submit result: pgCv6gKSNxiJpJRVZbGsesYgKI8- has been uploaded
==== Log checksum 58E3F9EB51ACF4772F9A578B0C20071F64CE47A10FE02F62130D731F96DF69CD ====
 
Содержание индексной карты (.CUE)
REM GENRE Jazz
REM DATE 2001
REM DISCID 970FF20A
REM COMMENT "ExactAudioCopy v1.1"
PERFORMER "Peter Janson"
TITLE "Nordic Meeting"
FILE "01 - Intro.wav" WAVE
TRACK 01 AUDIO
TITLE "Intro"
PERFORMER "Peter Janson"
ISRC SEPUC0054010
INDEX 01 00:00:00
FILE "02 - Chicken Parade.wav" WAVE
TRACK 02 AUDIO
TITLE "Chicken Parade"
PERFORMER "Peter Janson"
ISRC SEPUC0054020
INDEX 01 00:00:00
TRACK 03 AUDIO
TITLE "Afro Five"
PERFORMER "Peter Janson"
ISRC SEPUC0054030
INDEX 00 05:48:45
FILE "03 - Afro Five.wav" WAVE
INDEX 01 00:00:00
TRACK 04 AUDIO
TITLE "Varmlandsvisan"
PERFORMER "Peter Janson"
ISRC SEPUC0054040
INDEX 00 08:59:35
FILE "04 - Varmlandsvisan.wav" WAVE
INDEX 01 00:00:00
FILE "05 - Trallart.wav" WAVE
TRACK 05 AUDIO
TITLE "Trallart"
PERFORMER "Peter Janson"
ISRC SEPUC0054050
INDEX 01 00:00:00
TRACK 06 AUDIO
TITLE "Teen Spleen"
PERFORMER "Peter Janson"
ISRC SEPUC0054060
INDEX 00 08:40:00
FILE "06 - Teen Spleen.wav" WAVE
INDEX 01 00:00:00
TRACK 07 AUDIO
TITLE "Nina"
PERFORMER "Peter Janson"
ISRC SEPUC0054070
INDEX 00 04:24:55
FILE "07 - Nina.wav" WAVE
INDEX 01 00:00:00
FILE "08 - Kor.wav" WAVE
TRACK 08 AUDIO
TITLE "Kor"
PERFORMER "Peter Janson"
ISRC SEPUC0054080
INDEX 01 00:00:00
TRACK 09 AUDIO
TITLE "239-240"
PERFORMER "Peter Janson"
ISRC SEPUC0054090
INDEX 00 04:48:42
FILE "09 - 239-240.wav" WAVE
INDEX 01 00:00:00
TRACK 10 AUDIO
TITLE "Tung"
PERFORMER "Peter Janson"
ISRC SEPUC0054100
INDEX 00 08:26:52
FILE "10 - Tung.wav" WAVE
INDEX 01 00:00:00
 
Отчет CUETools
[CUETools log; Date: 28.01.2016 16:15:42; Version: 2.1.5]
[CTDB TOCID: pgCv6gKSNxiJpJRVZbGsesYgKI8-] found.
Track | CTDB Status
1 | (1/1) Accurately ripped
2 | (1/1) Accurately ripped
3 | (1/1) Accurately ripped
4 | (1/1) Accurately ripped
5 | (1/1) Accurately ripped
6 | (1/1) Accurately ripped
7 | (1/1) Accurately ripped
8 | (1/1) Accurately ripped
9 | (1/1) Accurately ripped
10 | (1/1) Accurately ripped
[AccurateRip ID: 0015d9e3-00b4ce84-970ff20a] found.
Track [ CRC | V2 ] Status
01 [2906b338|c2eddfad] (0+1/1) Accurately ripped
02 [4aea1ac8|f34d0ef5] (0+1/1) Accurately ripped
03 [1e7bc1e8|118246b0] (0+1/1) Accurately ripped
04 [e462ce9b|3b48cab5] (0+1/1) Accurately ripped
05 [706ba5fa|189c9403] (0+1/1) Accurately ripped
06 [58049cef|b5a5dd2f] (0+1/1) Accurately ripped
07 [7c9c606b|df258de0] (0+1/1) Accurately ripped
08 [14cd1870|3a19bea8] (0+1/1) Accurately ripped
09 [ba933b6d|1be215ff] (0+1/1) Accurately ripped
10 [1d0553b5|91975135] (0+1/1) Accurately ripped
Track Peak [ CRC32 ] [W/O NULL] [ LOG ]
-- 99,9 [AD172CBB] [88C8BCF1]
01 99,9 [B68168C2] [E8FE0532] CRC32
02 99,9 [16EF5A1E] [6486DB2B] CRC32
03 99,9 [3F3C79DB] [73082B82] CRC32
04 86,7 [CAA14515] [81BF510B] CRC32
05 99,9 [3480E807] [F396D793] CRC32
06 99,9 [22DB5BE7] [A795E615] CRC32
07 99,9 [36AC3046] [1EB9484B] CRC32
08 99,9 [C4B40EB9] [0C3A6CDF] CRC32
09 99,9 [616FE011] [A7A67ED2] CRC32
10 99,9 [911E0840] [A7C5BA6F] CRC32
По всем вопросам пишите личное сообщение пользователю M0p94ok.
18:40
149
Нет комментариев. Ваш будет первым!