Вы используете незарегистрированную версию компонента "Вкладки"!

Поиск

(Avant-Garde Jazz, Free Improvisation) [CD] Mette Rasmussen & Chris Corsano Duo - All The Ghosts At Once - 2015, FLAC (tracks+.cue), lossless

(Avant-Garde Jazz, Free Improvisation) [CD] Mette Rasmussen & Chris Corsano Duo - All The Ghosts At Once - 2015, FLAC (tracks+.cue), lossless
Треклист:
METTE RASMUSSEN
CHRIS CORSANO DUO
All the Ghosts At Once Жанр: Avant-Garde Jazz, Free Improvisation
Страна-производитель диска: USA
Год издания: 2015
Издатель (лейбл): Relative Pitch Records
Номер по каталогу: RPR1037
Аудиокодек: FLAC (*.flac)
Тип рипа: tracks+.cue
Битрейт аудио: lossless
Продолжительность: 51:27
Источник (релизер): спасибо 6060842
Наличие сканов: нет
Треклист:
1. Train Track
2. _____'s Lament (Part 1)
3. _____'s Lament (Part 2)
4. Contester
5. How Many Of These Things Do We Need Anyway?
6. Exploding Foods
7. Dots ............ (For Paul Flaherty)
8. O Space Heater! My Space Heater!
9. Yesterday's Teenyboppers Are Today's Republicans
 
Лог создания рипа
X Lossless Decoder version 20151214 (149.1)
XLD extraction logfile from 2016-01-21 14:55:59 +0300
Mette Rasmussen, Chris Corsano / All the Ghosts at Once
Used drive : HL-DT-ST DVDRW GX30N (revision RP09)
Media type : Pressed CD
Ripper mode : XLD Secure Ripper
Disable audio cache : OK for the drive with a cache less than 1375KiB
Make use of C2 pointers : NO
Read offset correction : 6
Max retry count : 100
Gap status : Analyzed, Appended (except HTOA)
TOC of the extracted CD
Track | Start | Length | Start sector | End sector
---------------------------------------------------------
1 | 00:00:00 | 08:13:33 | 0 | 37007
2 | 08:13:33 | 02:55:66 | 37008 | 50198
3 | 11:09:24 | 02:04:67 | 50199 | 59565
4 | 13:14:16 | 02:44:24 | 59566 | 71889
5 | 15:58:40 | 05:20:01 | 71890 | 95890
6 | 21:18:41 | 11:02:36 | 95891 | 145576
7 | 32:21:02 | 04:29:54 | 145577 | 165805
8 | 36:50:56 | 12:15:67 | 165806 | 220997
9 | 49:06:48 | 02:35:06 | 220998 | 232628
AccurateRip Summary
Disc not found in AccurateRip DB.
All Tracks
Album gain : -6.12 dB
Peak : 1.000000
Statistics
Read error : 0
Jitter error (maybe fixed) : 0
Retry sector count : 0
Damaged sector count : 0
Track 01
Filename : /Users/anch/Music/Grabbed/Mette Rasmussen, Chris Corsano/F 2015 - All the Ghosts at Once/01 - Train Track.flac
Pre-gap length : 00:02:00
Track gain : -7.78 dB
Peak : 1.000000
CRC32 hash (test run) : B51ACAC1
CRC32 hash : B51ACAC1
CRC32 hash (skip zero) : 0FF76693
AccurateRip v1 signature : 6BBFC036
AccurateRip v2 signature : 93FFCB57
->Track not present in AccurateRip database.
Statistics
Read error : 0
Jitter error (maybe fixed) : 0
Retry sector count : 0
Damaged sector count : 0
Track 02
Filename : /Users/anch/Music/Grabbed/Mette Rasmussen, Chris Corsano/F 2015 - All the Ghosts at Once/02 - _____'s Lament (Part 1).flac
Pre-gap length : 00:02:00
Track gain : 2.33 dB
Peak : 0.702850
CRC32 hash (test run) : 7E002FD6
CRC32 hash : 7E002FD6
CRC32 hash (skip zero) : EAA4D7B5
AccurateRip v1 signature : 2CC53D96
AccurateRip v2 signature : B5DF850C
->Track not present in AccurateRip database.
Statistics
Read error : 0
Jitter error (maybe fixed) : 0
Retry sector count : 0
Damaged sector count : 0
Track 03
Filename : /Users/anch/Music/Grabbed/Mette Rasmussen, Chris Corsano/F 2015 - All the Ghosts at Once/03 - _____'s Lament (Part 2).flac
Track gain : 5.28 dB
Peak : 0.713043
CRC32 hash (test run) : C16C93D8
CRC32 hash : C16C93D8
CRC32 hash (skip zero) : 52D2C508
AccurateRip v1 signature : FAF34204
AccurateRip v2 signature : 4D7D6D8B
->Track not present in AccurateRip database.
Statistics
Read error : 0
Jitter error (maybe fixed) : 0
Retry sector count : 0
Damaged sector count : 0
Track 04
Filename : /Users/anch/Music/Grabbed/Mette Rasmussen, Chris Corsano/F 2015 - All the Ghosts at Once/04 - Contester.flac
Pre-gap length : 00:02:00
Track gain : -7.29 dB
Peak : 1.000000
CRC32 hash (test run) : 9181F42D
CRC32 hash : 9181F42D
CRC32 hash (skip zero) : 0AC69F89
AccurateRip v1 signature : FCAEF01C
AccurateRip v2 signature : 569E40D6
->Track not present in AccurateRip database.
Statistics
Read error : 0
Jitter error (maybe fixed) : 0
Retry sector count : 0
Damaged sector count : 0
Track 05
Filename : /Users/anch/Music/Grabbed/Mette Rasmussen, Chris Corsano/F 2015 - All the Ghosts at Once/05 - How Many of These Things Do We Need Anyway?.flac
Pre-gap length : 00:02:00
Track gain : -6.12 dB
Peak : 1.000000
CRC32 hash (test run) : CB2D8D7F
CRC32 hash : CB2D8D7F
CRC32 hash (skip zero) : 5858FD5A
AccurateRip v1 signature : 7F2359E2
AccurateRip v2 signature : 6A8D5EA1
->Track not present in AccurateRip database.
Statistics
Read error : 0
Jitter error (maybe fixed) : 0
Retry sector count : 0
Damaged sector count : 0
Track 06
Filename : /Users/anch/Music/Grabbed/Mette Rasmussen, Chris Corsano/F 2015 - All the Ghosts at Once/06 - Exploding Foods.flac
Pre-gap length : 00:02:00
Track gain : -6.11 dB
Peak : 1.000000
CRC32 hash (test run) : 1FC87C9E
CRC32 hash : 1FC87C9E
CRC32 hash (skip zero) : 0CD9A971
AccurateRip v1 signature : CBB1B6ED
AccurateRip v2 signature : B57E3016
->Track not present in AccurateRip database.
Statistics
Read error : 0
Jitter error (maybe fixed) : 0
Retry sector count : 0
Damaged sector count : 0
Track 07
Filename : /Users/anch/Music/Grabbed/Mette Rasmussen, Chris Corsano/F 2015 - All the Ghosts at Once/07 - Dots............. (for Paul Flaherty).flac
Pre-gap length : 00:02:00
Track gain : -5.48 dB
Peak : 1.000000
CRC32 hash (test run) : 3C871922
CRC32 hash : 3C871922
CRC32 hash (skip zero) : 002B6821
AccurateRip v1 signature : 6331671E
AccurateRip v2 signature : B3864765
->Track not present in AccurateRip database.
Statistics
Read error : 0
Jitter error (maybe fixed) : 0
Retry sector count : 0
Damaged sector count : 0
Track 08
Filename : /Users/anch/Music/Grabbed/Mette Rasmussen, Chris Corsano/F 2015 - All the Ghosts at Once/08 - O Space Heater! My Space Heater!.flac
Pre-gap length : 00:02:00
Track gain : 0.44 dB
Peak : 1.000000
CRC32 hash (test run) : 092A95A7
CRC32 hash : 092A95A7
CRC32 hash (skip zero) : A4CDC6AA
AccurateRip v1 signature : B468E80F
AccurateRip v2 signature : A1EDCB90
->Track not present in AccurateRip database.
Statistics
Read error : 0
Jitter error (maybe fixed) : 0
Retry sector count : 0
Damaged sector count : 0
Track 09
Filename : /Users/anch/Music/Grabbed/Mette Rasmussen, Chris Corsano/F 2015 - All the Ghosts at Once/09 - Yesterdays' Teenyboppers Are Today's Republicans.flac
Pre-gap length : 00:02:00
Track gain : 10.69 dB
Peak : 0.506042
CRC32 hash (test run) : 511279CB
CRC32 hash : 511279CB
CRC32 hash (skip zero) : 97B9B301
AccurateRip v1 signature : B12ADDBC
AccurateRip v2 signature : FC2D1233
->Track not present in AccurateRip database.
Statistics
Read error : 0
Jitter error (maybe fixed) : 0
Retry sector count : 0
Damaged sector count : 0
No errors occurred
End of status report
-----BEGIN XLD SIGNATURE-----
nsuC2DYvPiKbe0RtBh0yL3pcllTO6R28CGZrdjYer8QT6qi9.otrHMjpsVGXdyhTPWmzaReRUtQJmrPl4GxK14qIGNXa99snbMiLWPO
-----END XLD SIGNATURE-----
 
Содержание индексной карты (.CUE)
TITLE "All the Ghosts at Once"
PERFORMER "Mette Rasmussen, Chris Corsano"
REM GENRE "Free Jazz"
REM DATE "2015"
REM DISCNUMBER 1
REM TOTALDISCS 1
REM DISCID 810C1D09
REM REPLAYGAIN_ALBUM_GAIN -6.12 dB
REM REPLAYGAIN_ALBUM_PEAK 1.000000
FILE "01 - Train Track.flac" WAVE
TRACK 01 AUDIO
TITLE "Train Track"
PERFORMER "Mette Rasmussen, Chris Corsano"
ISRC QMRAT1500001
FLAGS DCP
REM REPLAYGAIN_TRACK_GAIN -7.78 dB
REM REPLAYGAIN_TRACK_PEAK 1.000000
INDEX 01 00:00:00
TRACK 02 AUDIO
TITLE "_____'s Lament (Part 1)"
PERFORMER "Mette Rasmussen, Chris Corsano"
ISRC QMRAT1500002
FLAGS DCP
REM REPLAYGAIN_TRACK_GAIN 2.33 dB
REM REPLAYGAIN_TRACK_PEAK 0.702850
INDEX 00 08:11:33
FILE "02 - _____'s Lament (Part 1).flac" WAVE
INDEX 01 00:00:00
FILE "03 - _____'s Lament (Part 2).flac" WAVE
TRACK 03 AUDIO
TITLE "_____'s Lament (Part 2)"
PERFORMER "Mette Rasmussen, Chris Corsano"
ISRC QMRAT1500003
FLAGS DCP
REM REPLAYGAIN_TRACK_GAIN 5.28 dB
REM REPLAYGAIN_TRACK_PEAK 0.713043
INDEX 01 00:00:00
TRACK 04 AUDIO
TITLE "Contester"
PERFORMER "Mette Rasmussen, Chris Corsano"
ISRC QMRAT1500004
FLAGS DCP
REM REPLAYGAIN_TRACK_GAIN -7.29 dB
REM REPLAYGAIN_TRACK_PEAK 1.000000
INDEX 00 02:02:67
FILE "04 - Contester.flac" WAVE
INDEX 01 00:00:00
TRACK 05 AUDIO
TITLE "How Many of These Things Do We Need Anyway?"
PERFORMER "Mette Rasmussen, Chris Corsano"
ISRC QMRAT1500005
FLAGS DCP
REM REPLAYGAIN_TRACK_GAIN -6.12 dB
REM REPLAYGAIN_TRACK_PEAK 1.000000
INDEX 00 02:42:24
FILE "05 - How Many of These Things Do We Need Anyway.flac" WAVE
INDEX 01 00:00:00
TRACK 06 AUDIO
TITLE "Exploding Foods"
PERFORMER "Mette Rasmussen, Chris Corsano"
ISRC QMRAT1500006
FLAGS DCP
REM REPLAYGAIN_TRACK_GAIN -6.11 dB
REM REPLAYGAIN_TRACK_PEAK 1.000000
INDEX 00 05:18:01
FILE "06 - Exploding Foods.flac" WAVE
INDEX 01 00:00:00
TRACK 07 AUDIO
TITLE "Dots............. (for Paul Flaherty)"
PERFORMER "Mette Rasmussen, Chris Corsano"
ISRC QMRAT1500007
FLAGS DCP
REM REPLAYGAIN_TRACK_GAIN -5.48 dB
REM REPLAYGAIN_TRACK_PEAK 1.000000
INDEX 00 11:00:36
FILE "07 - Dots............. (for Paul Flaherty).flac" WAVE
INDEX 01 00:00:00
TRACK 08 AUDIO
TITLE "O Space Heater! My Space Heater!"
PERFORMER "Mette Rasmussen, Chris Corsano"
ISRC QMRAT1500008
FLAGS DCP
REM REPLAYGAIN_TRACK_GAIN 0.44 dB
REM REPLAYGAIN_TRACK_PEAK 1.000000
INDEX 00 04:27:54
FILE "08 - O Space Heater! My Space Heater!.flac" WAVE
INDEX 01 00:00:00
TRACK 09 AUDIO
TITLE "Yesterdays' Teenyboppers Are Today's Republicans"
PERFORMER "Mette Rasmussen, Chris Corsano"
ISRC QMRAT1500009
FLAGS DCP
REM REPLAYGAIN_TRACK_GAIN 10.69 dB
REM REPLAYGAIN_TRACK_PEAK 0.506042
INDEX 00 12:13:67
FILE "09 - Yesterdays' Teenyboppers Are Today's Republicans.flac" WAVE
INDEX 01 00:00:00
 
Об альбоме
The Danish, Trondheim, Norway-based alto sax player Mette Rasmussen and American drummer have been performing as a duo continuously for the last two years. The duo's free-improvised music benefits from these gifted musicians accumulated experiences. Corsano's resume stretches from free jazz legends as sax players Joe McPhee, Paul Flaherty & Akira Sakata, noise masters as Bill Nace and C Spencer Yeh to avant-pop vocalist Björk. He represents the hyperactive, ecstatic pole in this duo. Rasmussen, now part of Mats Gustafsson’s Fire! Orchestra, has played with improvisers such as Rudi Mahall, Alan Silva, Ståle Liavik Solberg, and with her own Trio Riot, adds a more contemplative tone yet a highly commanding one and a sense of direction and narrative to this duo.
The debut album of the duo was recorded at I-Beam, Brooklyn, in October 2013. The interplay between Rasmussen and corsano sound organic, flowing and inventive, despite their different approaches. Already in the opening track. “Train Track”, Corsano sound as eager to dive deep into a primal, full-blown eruption of intense drumming while Rasmussen builds the tension patiently, exploring other options, before joining Corsano in an energetic ride towards the inevitable catharsis. Rasmussen minimalist sonic searches and her singing sound, especially on the short pieces, force Corsano to distill his ecstatic, powerful playing into nuanced, delicate gestures. But more often both establish a common ground in an intense forms of interplay as on the fiery “How Many of These Things Do We Need Anyway?”, challenging each other through brilliant, charismatic playing, reaching even moving, lyrical segments on the capricious and joyous “Exploding Foods”. Still, the duo expansive language seeks to liberate itself from any conventional forms of playing and searches for newer, free forms of playing, sketching abstract yet rich textures on “O Space Heater! My Space Heater!” and on the closing piece, “Yesterday’s Teenyboppers Are Today’s Republicans”.
Rasmussen's and Corsano's profound understanding of the liberating power of free, creative music is impressive. Strongly recommended.
4,5/5 stars
(Eyal Hareuveni, freejazzblog.org)
 
Состав

Mette Rasmussen - alto saxophone • Chris Corsano - drums
По всем вопросам пишите личное сообщение пользователю M0p94ok.
18:39
199
Нет комментариев. Ваш будет первым!