Вы используете незарегистрированную версию компонента "Вкладки"!

Поиск

(ECM, Avant-Garde Jazz, Post-Bop, Guitar Jazz, ) [CD] Ben Monder, Pete Rende, Andrew Cyrille, Paul Motian - Amorphae - 2015, FLAC (tracks+.cue), lossless

(ECM, Avant-Garde Jazz, Post-Bop, Guitar Jazz, ) [CD] Ben Monder, Pete Rende, Andrew Cyrille, Paul Motian - Amorphae - 2015, FLAC (tracks+.cue), lossless
Треклист:
Ben Monder, Pete Rende, Andrew Cyrille, Paul Motian - Amorphae
Жанр: Avant-Garde Jazz, Post-Bop, Guitar Jazz
Носитель: CD
Страна-производитель диска (релиза): Germany
Год издания: 2015
Издатель (лейбл): ECM
Номер по каталогу: ECM 2421
Страна исполнителя (группы): USA
Аудиокодек: FLAC (*.flac)
Тип рипа: tracks+.cue
Битрейт аудио: lossless
Продолжительность: 00:44:55
Источник (релизер): ruskaval
Наличие сканов в содержимом раздачи: да

Ben Monder - Electric Guitar, Electric Baritone Guitar
Pete Rende - Synthesizer
Andrew Cyrille - Drums
Paul Motian - Drums

01. Tendrils [05:21]
02. Oh, What A Beautiful Morning [05:22]
03. Tumid Cenobite [04:49]
04. Gamma Crucis [05:15]
05. Zythum [07:06]
06. Triffids [02:55]
07. Hematophagy [06:57]
08. Dinosaur Skies [07:05]

 
Лог создания рипа
Exact Audio Copy V1.1 from 23. June 2015
EAC extraction logfile from 22. January 2016, 22:19
Ben Monder / Amorphae
Used drive : MATSHITADVD+-RW SW830 Adapter: 1 ID: 0
Read mode : Secure
Utilize accurate stream : Yes
Defeat audio cache : Yes
Make use of C2 pointers : No
Read offset correction : 6
Overread into Lead-In and Lead-Out : No
Fill up missing offset samples with silence : Yes
Delete leading and trailing silent blocks : No
Null samples used in CRC calculations : Yes
Used interface : Native Win32 interface for Win NT & 2000
Gap handling : Appended to previous track
Used output format : User Defined Encoder
Selected bitrate : 896 kBit/s
Quality : High
Add ID3 tag : No
Command line compressor : C:\Program Files (x86)\Exact Audio Copy\Flac\flac.exe
Additional command line options : -8 -V -T "ARTIST=%artist%" -T "TITLE=%title%" -T "ALBUM=%albumtitle%" -T "DATE=%year%" -T "TRACKNUMBER=%tracknr%" -T "TOTALTRACKS=%numtracks%" -T "GENRE=%genre%" -T "ALBUMARTIST=%albumartist%" -T "ALBUM ARTIST=%albumartist%" -T "COMMENT=EAC Secure Mode, Test & Copy, AccurateRip, FLAC -8" %source%
TOC of the extracted CD
Track | Start | Length | Start sector | End sector
---------------------------------------------------------
1 | 0:00.00 | 5:21.42 | 0 | 24116
2 | 5:21.42 | 5:22.59 | 24117 | 48325
3 | 10:44.26 | 4:49.72 | 48326 | 70072
4 | 15:34.23 | 5:15.03 | 70073 | 93700
5 | 20:49.26 | 7:06.31 | 93701 | 125681
6 | 27:55.57 | 2:55.65 | 125682 | 138871
7 | 30:51.47 | 6:57.49 | 138872 | 170195
8 | 37:49.21 | 7:05.66 | 170196 | 202136
Track 1
Filename G:\New Rips\Ben Monder - Amorphae (2015) [FLAC]\01 - Tendrils.wav
Pre-gap length 0:00:02.00
Peak level 62.7 %
Extraction speed 1.9 X
Track quality 100.0 %
Test CRC A78F141D
Copy CRC A78F141D
Accurately ripped (confidence 1) [DA94F7AB] (AR v2)
Copy OK
Track 2
Filename G:\New Rips\Ben Monder - Amorphae (2015) [FLAC]\02 - Oh What A Beautiful Morning.wav
Peak level 98.2 %
Extraction speed 2.2 X
Track quality 100.0 %
Test CRC 95CF9084
Copy CRC 95CF9084
Accurately ripped (confidence 1) [11F26A88] (AR v2)
Copy OK
Track 3
Filename G:\New Rips\Ben Monder - Amorphae (2015) [FLAC]\03 - Tumid Cenobite.wav
Peak level 72.1 %
Extraction speed 2.4 X
Track quality 100.0 %
Test CRC E47E3E0F
Copy CRC E47E3E0F
Accurately ripped (confidence 1) [004EFFDD] (AR v2)
Copy OK
Track 4
Filename G:\New Rips\Ben Monder - Amorphae (2015) [FLAC]\04 - Gamma Crucis.wav
Peak level 97.6 %
Extraction speed 2.1 X
Track quality 99.9 %
Test CRC 7099A605
Copy CRC 7099A605
Accurately ripped (confidence 1) [F366D0A0] (AR v2)
Copy OK
Track 5
Filename G:\New Rips\Ben Monder - Amorphae (2015) [FLAC]\05 - Zythum.wav
Peak level 97.7 %
Extraction speed 2.9 X
Track quality 100.0 %
Test CRC E8A169E9
Copy CRC E8A169E9
Accurately ripped (confidence 1) [98919841] (AR v2)
Copy OK
Track 6
Filename G:\New Rips\Ben Monder - Amorphae (2015) [FLAC]\06 - Triffids.wav
Peak level 57.1 %
Extraction speed 2.7 X
Track quality 100.0 %
Test CRC D2261870
Copy CRC D2261870
Accurately ripped (confidence 1) [6DC24875] (AR v2)
Copy OK
Track 7
Filename G:\New Rips\Ben Monder - Amorphae (2015) [FLAC]\07 - Hematophagy.wav
Peak level 97.8 %
Extraction speed 2.7 X
Track quality 99.9 %
Test CRC EB604CE7
Copy CRC EB604CE7
Accurately ripped (confidence 1) [ED8BBF25] (AR v2)
Copy OK
Track 8
Filename G:\New Rips\Ben Monder - Amorphae (2015) [FLAC]\08 - Dinosaur Skies.wav
Peak level 97.7 %
Extraction speed 3.4 X
Track quality 100.0 %
Test CRC 714E4841
Copy CRC 714E4841
Accurately ripped (confidence 1) [8CF0EC74] (AR v2)
Copy OK
All tracks accurately ripped
No errors occurred
End of status report
---- CUETools DB Plugin V2.1.6
[CTDB TOCID: 86RyBJ1D1OYizHpKGOE392QxgpU-] found
Submit result: 86RyBJ1D1OYizHpKGOE392QxgpU- has been confirmed
Track | CTDB Status
1 | (4/4) Accurately ripped
2 | (4/4) Accurately ripped
3 | (4/4) Accurately ripped
4 | (4/4) Accurately ripped
5 | (4/4) Accurately ripped
6 | (4/4) Accurately ripped
7 | (4/4) Accurately ripped
8 | (4/4) Accurately ripped
==== Log checksum 22101840A556D99CBA4D3B6449D237AB287FB1203D09F9568C8DA5BF731F3F20 ====
 
Содержание индексной карты (.CUE)
REM GENRE Jazz
REM DATE 2015
REM DISCID 670A8708
REM COMMENT "ExactAudioCopy v1.1"
PERFORMER "Ben Monder"
TITLE "Amorphae"
FILE "01 - Tendrils.flac" WAVE
TRACK 01 AUDIO
TITLE "Tendrils"
PERFORMER "Ben Monder"
INDEX 01 00:00:00
FILE "02 - Oh What A Beautiful Morning.flac" WAVE
TRACK 02 AUDIO
TITLE "Oh What A Beautiful Morning"
PERFORMER "Ben Monder"
INDEX 01 00:00:00
FILE "03 - Tumid Cenobite.flac" WAVE
TRACK 03 AUDIO
TITLE "Tumid Cenobite"
PERFORMER "Ben Monder"
INDEX 01 00:00:00
FILE "04 - Gamma Crucis.flac" WAVE
TRACK 04 AUDIO
TITLE "Gamma Crucis"
PERFORMER "Ben Monder"
INDEX 01 00:00:00
FILE "05 - Zythum.flac" WAVE
TRACK 05 AUDIO
TITLE "Zythum"
PERFORMER "Ben Monder"
INDEX 01 00:00:00
FILE "06 - Triffids.flac" WAVE
TRACK 06 AUDIO
TITLE "Triffids"
PERFORMER "Ben Monder"
INDEX 01 00:00:00
FILE "07 - Hematophagy.flac" WAVE
TRACK 07 AUDIO
TITLE "Hematophagy"
PERFORMER "Ben Monder"
INDEX 01 00:00:00
FILE "08 - Dinosaur Skies.flac" WAVE
TRACK 08 AUDIO
TITLE "Dinosaur Skies"
PERFORMER "Ben Monder"
INDEX 01 00:00:00
По всем вопросам пишите личное сообщение пользователю M0p94ok.
18:38
309
Нет комментариев. Ваш будет первым!