Поиск

(Free Jazz, Poetry, Experimental) [CD] El Infierno Musical (Christof Kurzmann, Ken Vandermark, Clayton Thomas, Martin Brandlmayr) - El Infierno Musical - 2011, FLAC (tracks+.cue), lossless

(Free Jazz, Poetry, Experimental) [CD] El Infierno Musical (Christof Kurzmann, Ken Vandermark, Clayton Thomas, Martin Brandlmayr) - El Infierno Musical - 2011, FLAC (tracks+.cue), lossless
El Infierno Musical / El Infierno Musical
Жанр: Free Jazz, Poetry, Experimental
Носитель: CD
Страна-производитель диска (релиза): Russia
Год издания: 2011
Издатель (лейбл): Mikroton Recordings
Номер по каталогу: cd 20
Аудиокодек: FLAC (*.flac)
Тип рипа: tracks+.cue
Битрейт аудио: lossless
Продолжительность: 54:20
Источник (релизер): whatcd (6060842)
Наличие сканов в содержимом раздачи: нет
Треклист:
1 El Infierno Musical 8:51
2 Ashes I 6:52
3 Dianas Tree 9:08
4 Para Janis Joplin 4:39
5 Cold In Hand Blues 10:27
6 Ashes II 14:15
 
Лог создания рипа
X Lossless Decoder version 20121027 (142.1)
XLD extraction logfile from 2012-11-14 00:10:12 +0300
El Infierno Musical / El Infierno Musical
Used drive : MATSHITA CD-RW CW-8221 (revision GA0K)
Ripper mode : XLD Secure Ripper
Disable audio cache : OK for the drive with a cache less than 1375KiB
Make use of C2 pointers : NO
Read offset correction : 102
Max retry count : 20
Gap status : Analyzed, Appended (except HTOA)
TOC of the extracted CD
Track | Start | Length | Start sector | End sector
---------------------------------------------------------
1 | 00:00:00 | 08:55:47 | 0 | 40171
2 | 08:55:47 | 06:56:49 | 40172 | 71420
3 | 15:52:21 | 09:13:67 | 71421 | 112962
4 | 25:06:13 | 04:44:07 | 112963 | 134269
5 | 29:50:20 | 10:22:28 | 134270 | 180947
6 | 40:12:48 | 14:06:67 | 180948 | 244464
AccurateRip Summary
Disc not found in AccurateRip DB.
All Tracks
Album gain : -4.39 dB
Peak : 0.999908
Statistics
Read error : 0
Jitter error (maybe fixed) : 0
Retry sector count : 0
Damaged sector count : 0
Track 01
Filename : /My/Music/_Grabbed/El Infierno Musical - 2011 - El Infierno Musical [FLAC]/01 - El Infierno Musical.flac
/My/Music/_Grabbed/El Infierno Musical - 2011 - El Infierno Musical [MP3 320]/01 - El Infierno Musical.mp3
Pre-gap length : 00:02:00
Track gain : -1.29 dB
Peak : 0.944366
CRC32 hash (test run) : 5EB7B008
CRC32 hash : 5EB7B008
CRC32 hash (skip zero) : 48FEC191
AccurateRip v1 signature : F107FD19
AccurateRip v2 signature : 72CDB0BE
->Track not present in AccurateRip database.
Statistics
Read error : 0
Jitter error (maybe fixed) : 0
Retry sector count : 0
Damaged sector count : 0
Track 02
Filename : /My/Music/_Grabbed/El Infierno Musical - 2011 - El Infierno Musical [FLAC]/02 - Ashes I.flac
/My/Music/_Grabbed/El Infierno Musical - 2011 - El Infierno Musical [MP3 320]/02 - Ashes I.mp3
Pre-gap length : 00:02:71
Track gain : -5.02 dB
Peak : 0.954926
CRC32 hash (test run) : 52072976
CRC32 hash : 52072976
CRC32 hash (skip zero) : AAE2574F
AccurateRip v1 signature : 9225D8AE
AccurateRip v2 signature : DE89233D
->Track not present in AccurateRip database.
Statistics
Read error : 0
Jitter error (maybe fixed) : 0
Retry sector count : 0
Damaged sector count : 0
Track 03
Filename : /My/Music/_Grabbed/El Infierno Musical - 2011 - El Infierno Musical [FLAC]/03 - Dianas Tree.flac
/My/Music/_Grabbed/El Infierno Musical - 2011 - El Infierno Musical [MP3 320]/03 - Dianas Tree.mp3
Pre-gap length : 00:03:41
Track gain : -4.89 dB
Peak : 0.974884
CRC32 hash (test run) : 30C85694
CRC32 hash : 30C85694
CRC32 hash (skip zero) : 983FFAB5
AccurateRip v1 signature : E85723C4
AccurateRip v2 signature : 061A3333
->Track not present in AccurateRip database.
Statistics
Read error : 0
Jitter error (maybe fixed) : 0
Retry sector count : 0
Damaged sector count : 0
Track 04
Filename : /My/Music/_Grabbed/El Infierno Musical - 2011 - El Infierno Musical [FLAC]/04 - Para Janis Joplin.flac
/My/Music/_Grabbed/El Infierno Musical - 2011 - El Infierno Musical [MP3 320]/04 - Para Janis Joplin.mp3
Pre-gap length : 00:03:42
Track gain : -3.50 dB
Peak : 0.949677
CRC32 hash (test run) : 9046D40F
CRC32 hash : 9046D40F
CRC32 hash (skip zero) : 9602E931
AccurateRip v1 signature : 54EF98A0
AccurateRip v2 signature : 2CAD52E9
->Track not present in AccurateRip database.
Statistics
Read error : 0
Jitter error (maybe fixed) : 0
Retry sector count : 0
Damaged sector count : 0
Track 05
Filename : /My/Music/_Grabbed/El Infierno Musical - 2011 - El Infierno Musical [FLAC]/05 - Cold in Hand Blues.flac
/My/Music/_Grabbed/El Infierno Musical - 2011 - El Infierno Musical [MP3 320]/05 - Cold in Hand Blues.mp3
Pre-gap length : 00:03:42
Track gain : -4.09 dB
Peak : 0.999908
CRC32 hash (test run) : 202350CC
CRC32 hash : 202350CC
CRC32 hash (skip zero) : F16C2777
AccurateRip v1 signature : CDE91948
AccurateRip v2 signature : BCCFF289
->Track not present in AccurateRip database.
Statistics
Read error : 0
Jitter error (maybe fixed) : 0
Retry sector count : 0
Damaged sector count : 0
Track 06
Filename : /My/Music/_Grabbed/El Infierno Musical - 2011 - El Infierno Musical [FLAC]/06 - Ashes II.flac
/My/Music/_Grabbed/El Infierno Musical - 2011 - El Infierno Musical [MP3 320]/06 - Ashes II.mp3
Pre-gap length : 00:01:20
Track gain : -4.62 dB
Peak : 0.986694
CRC32 hash (test run) : 3CF3F41C
CRC32 hash : 3CF3F41C
CRC32 hash (skip zero) : 26D6A945
AccurateRip v1 signature : 43905C53
AccurateRip v2 signature : 4028BAD6
->Track not present in AccurateRip database.
Statistics
Read error : 0
Jitter error (maybe fixed) : 0
Retry sector count : 0
Damaged sector count : 0
No errors occurred
End of status report
 
Содержание индексной карты (.CUE)
TITLE "El Infierno Musical"
PERFORMER "El Infierno Musical"
CATALOG 0885767929883
REM GENRE "Jazz / Avant-Garde"
REM DATE "2011"
REM DISCID 4F0CBB06
REM REPLAYGAIN_ALBUM_GAIN -4.39 dB
REM REPLAYGAIN_ALBUM_PEAK 0.999908
FILE "01 - El Infierno Musical.flac" WAVE
TRACK 01 AUDIO
TITLE "El Infierno Musical"
SONGWRITER "Chistof Kurzmann"
ISRC RUA891120001
REM REPLAYGAIN_TRACK_GAIN -1.29 dB
REM REPLAYGAIN_TRACK_PEAK 0.944366
INDEX 01 00:00:00
TRACK 02 AUDIO
TITLE "Ashes I"
SONGWRITER "Chistof Kurzmann"
ISRC RUA891120002
REM REPLAYGAIN_TRACK_GAIN -5.02 dB
REM REPLAYGAIN_TRACK_PEAK 0.954926
INDEX 00 08:52:51
FILE "02 - Ashes I.flac" WAVE
INDEX 01 00:00:00
TRACK 03 AUDIO
TITLE "Dianas Tree"
SONGWRITER "Chistof Kurzmann"
ISRC RUA891120003
REM REPLAYGAIN_TRACK_GAIN -4.89 dB
REM REPLAYGAIN_TRACK_PEAK 0.974884
INDEX 00 06:53:08
FILE "03 - Dianas Tree.flac" WAVE
INDEX 01 00:00:00
TRACK 04 AUDIO
TITLE "Para Janis Joplin"
SONGWRITER "Chistof Kurzmann"
ISRC RUA891120004
REM REPLAYGAIN_TRACK_GAIN -3.50 dB
REM REPLAYGAIN_TRACK_PEAK 0.949677
INDEX 00 09:10:25
FILE "04 - Para Janis Joplin.flac" WAVE
INDEX 01 00:00:00
TRACK 05 AUDIO
TITLE "Cold in Hand Blues"
SONGWRITER "Chistof Kurzmann"
ISRC RUA891120005
REM REPLAYGAIN_TRACK_GAIN -4.09 dB
REM REPLAYGAIN_TRACK_PEAK 0.999908
INDEX 00 04:40:40
FILE "05 - Cold in Hand Blues.flac" WAVE
INDEX 01 00:00:00
TRACK 06 AUDIO
TITLE "Ashes II"
SONGWRITER "Chistof Kurzmann"
ISRC RUA891120006
REM REPLAYGAIN_TRACK_GAIN -4.62 dB
REM REPLAYGAIN_TRACK_PEAK 0.986694
INDEX 00 10:21:08
FILE "06 - Ashes II.flac" WAVE
INDEX 01 00:00:00
Доп. информация: Recorded (1,2,4,7 & 8.12.2009) & mastered @ Amann Studios / Wien
 
Состав
Alto Saxophone – Christof Kurzmann (tracks: 5)
Bass – Clayton Thomas
Drums, Vibraphone – Martin Brandlmayr
Guitar – Christof Kurzmann (tracks: 6)
Lyrics By – Alejandra Pizarnik
Lyrics By [Translated By] – Cecilia Rojo
Recorder [Contra Bass] – Eva Reiter (tracks: 3, 6)
Strings [Dan Bao - Vietnamese Monochord] – Eva Reiter (tracks: 5)
Tenor Saxophone, Clarinet, Bass Clarinet – Ken Vandermark
Viola [Viola Da Gamba] – Eva Reiter
Vocals – Eva Reiter (tracks: 5)
Vocals, Electronics, Composed By – Christof Kurzmann
14:29
300
Нет комментариев. Ваш будет первым!