Вы используете незарегистрированную версию компонента "Вкладки"!

Поиск

(Free Improvisation) [CD] Trio of Uncertainty (Veryan Weston, Hannah Marshall, Satoko Fukuda) - Unlocked - 2007, FLAC (tracks+.cue), lossless

(Free Improvisation) [CD] Trio of Uncertainty (Veryan Weston, Hannah Marshall, Satoko Fukuda) - Unlocked - 2007, FLAC (tracks+.cue), lossless
Треклист:
Trio of Uncertainty - Unlocked
Жанр: Free Improvisation
Носитель: CD
Страна-производитель диска (релиза): Великобритания
Год издания: 2007
Издатель (лейбл): Emanem
Номер по каталогу: 4141
Аудиокодек: FLAC (*.flac)
Тип рипа: tracks+.cue
Битрейт аудио: lossless
Продолжительность: 60:42
Источник (релизер): weareborg (what)
Наличие сканов в содержимом раздачи: нет
Треклист:
01. Epitome (3:56)
02. Gutter (4:06)
03. Unlocked (5:16)
04. Lost Ballad & Antidote (9:44)
05. Hypnogogia (1:25)
06. Sweep Up (3:01)
07. For This Were a Dream (2:54)
08. Unhinged (11:23)
09. Tightrope (6:04)
10. Periodic Questioning (12:53)
Состав:
Veryan Weston - piano
Hannah Marshall - cello
Satoko Fukuda - violin
Recorded in Pinewood, near London on March 13, 2007.
 
Лог создания рипа
Exact Audio Copy V0.99 prebeta 4 from 23. January 2008
EAC extraction logfile from 30. January 2010, 11:59
Trio of Uncertainty / Unlocked
Used drive : PIONEER DVD-RW DVR-109 Adapter: 1 ID: 0
Read mode : Secure
Utilize accurate stream : Yes
Defeat audio cache : Yes
Make use of C2 pointers : No
Read offset correction : 48
Overread into Lead-In and Lead-Out : No
Fill up missing offset samples with silence : Yes
Delete leading and trailing silent blocks : No
Null samples used in CRC calculations : Yes
Used interface : Installed external ASPI interface
Gap handling : Appended to previous track
Used output format : User Defined Encoder
Selected bitrate : 320 kBit/s
Quality : High
Add ID3 tag : No
Command line compressor : C:\Program Files\Exact Audio Copy\Flac\flac.exe
Additional command line options : -8 -V -T "ARTIST=%a" -T "TITLE=%t" -T "ALBUM=%g" -T "DATE=%y" -T "TRACKNUMBER=%n" -T "TOTALTRACKS=%x" -T "GENRE=%m" -T "ALBUM ARTIST=%v" -T "ALBUMARTIST=%v" -T "COMMENT=EAC V0.99 prebeta 4, Secure Mode, Test & Copy, Accurat
TOC of the extracted CD
Track | Start | Length | Start sector | End sector
---------------------------------------------------------
1 | 0:00.00 | 3:55.74 | 0 | 17698
2 | 3:55.74 | 4:06.27 | 17699 | 36175
3 | 8:02.26 | 5:15.68 | 36176 | 59868
4 | 13:18.19 | 9:44.10 | 59869 | 103678
5 | 23:02.29 | 1:24.43 | 103679 | 110021
6 | 24:26.72 | 3:00.40 | 110022 | 123561
7 | 27:27.37 | 2:53.68 | 123562 | 136604
8 | 30:21.30 | 11:22.53 | 136605 | 187807
9 | 41:44.08 | 6:04.28 | 187808 | 215135
10 | 47:48.36 | 12:52.58 | 215136 | 273093
Track 1
Filename D:\Torrent\Trio of Uncertainty - Unlocked (2007) [FLAC]\01 - Epitome.wav
Pre-gap length 0:00:02.00
Peak level 88.1 %
Track quality 100.0 %
Test CRC 9E8E89DB
Copy CRC 9E8E89DB
Accurately ripped (confidence 1) [3B9D74D0]
Copy OK
Track 2
Filename D:\Torrent\Trio of Uncertainty - Unlocked (2007) [FLAC]\02 - Gutter.wav
Pre-gap length 0:00:04.00
Peak level 87.1 %
Track quality 99.9 %
Test CRC 67056451
Copy CRC 67056451
Accurately ripped (confidence 1) [8CEC6544]
Copy OK
Track 3
Filename D:\Torrent\Trio of Uncertainty - Unlocked (2007) [FLAC]\03 - Unlocked.wav
Pre-gap length 0:00:02.00
Peak level 98.8 %
Track quality 100.0 %
Test CRC 753ABF0A
Copy CRC 753ABF0A
Accurately ripped (confidence 1) [0F0C33DD]
Copy OK
Track 4
Filename D:\Torrent\Trio of Uncertainty - Unlocked (2007) [FLAC]\04 - Lost Ballad & Antidote.wav
Pre-gap length 0:00:02.00
Peak level 98.2 %
Track quality 100.0 %
Test CRC 12382ACF
Copy CRC 12382ACF
Accurately ripped (confidence 1) [166D78BF]
Copy OK
Track 5
Filename D:\Torrent\Trio of Uncertainty - Unlocked (2007) [FLAC]\05 - Hypnogogia.wav
Pre-gap length 0:00:02.00
Peak level 79.9 %
Track quality 100.0 %
Test CRC 4E3DFC68
Copy CRC 4E3DFC68
Accurately ripped (confidence 1) [A64270CB]
Copy OK
Track 6
Filename D:\Torrent\Trio of Uncertainty - Unlocked (2007) [FLAC]\06 - Sweep up.wav
Pre-gap length 0:00:02.00
Peak level 98.2 %
Track quality 100.0 %
Test CRC 5B223356
Copy CRC 5B223356
Accurately ripped (confidence 1) [8BB41503]
Copy OK
Track 7
Filename D:\Torrent\Trio of Uncertainty - Unlocked (2007) [FLAC]\07 - For this were a Dream.wav
Pre-gap length 0:00:02.00
Peak level 58.0 %
Track quality 100.0 %
Test CRC 1AEF3C3E
Copy CRC 1AEF3C3E
Accurately ripped (confidence 1) [3BF02EB3]
Copy OK
Track 8
Filename D:\Torrent\Trio of Uncertainty - Unlocked (2007) [FLAC]\08 - Unhinged.wav
Pre-gap length 0:00:03.00
Peak level 97.8 %
Track quality 99.9 %
Test CRC 9EA8E775
Copy CRC 9EA8E775
Accurately ripped (confidence 1) [F242ED5C]
Copy OK
Track 9
Filename D:\Torrent\Trio of Uncertainty - Unlocked (2007) [FLAC]\09 - Tightrope.wav
Pre-gap length 0:00:02.00
Peak level 98.8 %
Track quality 100.0 %
Test CRC 224E6EA1
Copy CRC 224E6EA1
Accurately ripped (confidence 1) [1BF3233A]
Copy OK
Track 10
Filename D:\Torrent\Trio of Uncertainty - Unlocked (2007) [FLAC]\10 - Periodic Questioning.wav
Pre-gap length 0:00:04.00
Peak level 98.8 %
Track quality 100.0 %
Test CRC 7C1BE8CF
Copy CRC 7C1BE8CF
Accurately ripped (confidence 1) [EDF1207A]
Copy OK
All tracks accurately ripped
No errors occurred
End of status report
 
Содержание индексной карты (.CUE)
REM GENRE Avant-Garde
REM DATE 2007
REM DISCID 890E390A
REM COMMENT "ExactAudioCopy v0.99pb4"
PERFORMER "Trio of Uncertainty"
TITLE "Unlocked"
FILE "01 - Epitome.wav" WAVE
TRACK 01 AUDIO
TITLE "Epitome"
PERFORMER "Trio of Uncertainty"
INDEX 01 00:00:00
TRACK 02 AUDIO
TITLE "Gutter"
PERFORMER "Trio of Uncertainty"
INDEX 00 03:51:74
FILE "02 - Gutter.wav" WAVE
INDEX 01 00:00:00
TRACK 03 AUDIO
TITLE "Unlocked"
PERFORMER "Trio of Uncertainty"
INDEX 00 04:04:27
FILE "03 - Unlocked.wav" WAVE
INDEX 01 00:00:00
TRACK 04 AUDIO
TITLE "Lost Ballad & Antidote"
PERFORMER "Trio of Uncertainty"
INDEX 00 05:13:68
FILE "04 - Lost Ballad & Antidote.wav" WAVE
INDEX 01 00:00:00
TRACK 05 AUDIO
TITLE "Hypnogogia"
PERFORMER "Trio of Uncertainty"
INDEX 00 09:42:10
FILE "05 - Hypnogogia.wav" WAVE
INDEX 01 00:00:00
TRACK 06 AUDIO
TITLE "Sweep Up"
PERFORMER "Trio of Uncertainty"
INDEX 00 01:22:43
FILE "06 - Sweep Up.wav" WAVE
INDEX 01 00:00:00
TRACK 07 AUDIO
TITLE "For This Were a Dream"
PERFORMER "Trio of Uncertainty"
INDEX 00 02:58:40
FILE "07 - For This Were a Dream.wav" WAVE
INDEX 01 00:00:00
TRACK 08 AUDIO
TITLE "Unhinged"
PERFORMER "Trio of Uncertainty"
INDEX 00 02:50:68
FILE "08 - Unhinged.wav" WAVE
INDEX 01 00:00:00
TRACK 09 AUDIO
TITLE "Tightrope"
PERFORMER "Trio of Uncertainty"
INDEX 00 11:20:53
FILE "09 - Tightrope.wav" WAVE
INDEX 01 00:00:00
TRACK 10 AUDIO
TITLE "Periodic Questioning"
PERFORMER "Trio of Uncertainty"
INDEX 00 06:00:28
FILE "10 - Periodic Questioning.wav" WAVE
INDEX 01 00:00:00
 
Отчет CUETools
[CUETools log; Date: 14.07.2015 13:26:33; Version: 2.1.5]
[CTDB TOCID: Do.wZ9crNMaCWTMe11f0GmXOjNo-] found.
Track | CTDB Status
1 | (1/1) Accurately ripped
2 | (1/1) Accurately ripped
3 | (1/1) Accurately ripped
4 | (1/1) Accurately ripped
5 | (1/1) Accurately ripped
6 | (1/1) Accurately ripped
7 | (1/1) Accurately ripped
8 | (1/1) Accurately ripped
9 | (1/1) Accurately ripped
10 | (1/1) Accurately ripped
[AccurateRip ID: 00134822-009e29ba-890e390a] found.
Track [ CRC | V2 ] Status
01 [3b9d74d0|c81b38c1] (2+0/2) Accurately ripped
02 [8cec6544|8481a180] (2+0/2) Accurately ripped
03 [0f0c33dd|c017cbe4] (2+0/2) Accurately ripped
04 [166d78bf|9b828f26] (2+0/2) Accurately ripped
05 [a64270cb|fae109ea] (2+0/2) Accurately ripped
06 [8bb41503|de347836] (2+0/2) Accurately ripped
07 [3bf02eb3|6dfdc59f] (2+0/2) Accurately ripped
08 [f242ed5c|030ad450] (2+0/2) Accurately ripped
09 [1bf3233a|63a89a96] (2+0/2) Accurately ripped
10 [edf1207a|08cee3b3] (2+0/2) Accurately ripped
Track Peak [ CRC32 ] [W/O NULL] [ LOG ]
-- 98,8 [A7D18132] [F502430D]
01 88,1 [9E8E89DB] [44568186] CRC32
02 87,1 [67056451] [ADBDBA09] CRC32
03 98,8 [753ABF0A] [10B25A39] CRC32
04 98,2 [12382ACF] [6421F16A] CRC32
05 79,9 [4E3DFC68] [73AB9753] CRC32
06 98,2 [5B223356] [C59A291E] CRC32
07 58,0 [1AEF3C3E] [8A225B11] CRC32
08 97,8 [9EA8E775] [BD6DA720] CRC32
09 98,8 [224E6EA1] [2CE84FC9] CRC32
10 98,8 [7C1BE8CF] [5BAB8A9A] CRC32
 
Review by John Eyles
Trio of Uncertainty, which is Quintet of Uncertainty minus the reeds and percussion, plays its music on violin, cello and piano without amplification or other electronics—a comparatively rare phenomenon for improvised music these days. Certainly it will be the unadorned sound of the trio plus their musical syntax that immediately strikes listeners, and which has the most effect on their reaction to the music. This sounds like a trio playing some mutant form of chamber music, which indeed it is.
There are frequent passages on which the three could be playing a contemporary composition rather than improvising. Largely, this is due to Satoko Fukada's classically trained violin. So, on "For This Were A Dream" she draws forth a flowing mournful melody, replete with glissandi, while pianist Veryan Weston and cellist Hannah Marshall effectively fall into the role of accompanists. "Lost Ballad & Antidote begins in a similar vein; however—crucially—midway through it morphs into an equal three-way exchange that ebbs and flows before boiling up into a climax that could be nothing but improvised.
Indeed, once one gets beyond the surface sound of the trio, the music reveals all the pleasures of great improv; the lightning-fast reflex exchanges on the all-too-brief "Hypnogogia" contrast with the far longer "Unhinged," where ideas unfold at a more deliberate (even stately) pace before accelerating to a series of rapid exchanges followed by a moving funereal finale.
Throughout, the common features are the compatibility and empathy of the players, combined with a steady flow of ideas between them. The CD's front cover photo shows a peeling door that is unbolted and ajar, revealing a dreamlike pastoral landscape beyond, which features cotton wool clouds reflected in the tranquil surface of a river. Somehow, very fitting to the mood conjured up by the music.
По всем вопросам пишите личное сообщение пользователю M0p94ok.
14:30
170
Нет комментариев. Ваш будет первым!