Вы используете незарегистрированную версию компонента "Вкладки"!

Поиск

(Free Jazz) [CD] Peter Evans, Agusti Fernandez, Mats Gustafsson - Kopros Lithos - 2010, FLAC (image+.cue), lossless

(Free Jazz) [CD] Peter Evans, Agusti Fernandez, Mats Gustafsson - Kopros Lithos - 2010, FLAC (image+.cue), lossless
Треклист:
Peter Evans, Agustí Fernández, Mats Gustafsson / Kopros Lithos
Жанр: Free Jazz
Носитель: CD
Страна-производитель диска (релиза): Poland
Год издания: 2010
Издатель (лейбл): Multikulti Project
Номер по каталогу: ‎MPI013
Аудиокодек: FLAC (*.flac)
Тип рипа: image+.cue
Битрейт аудио: lossless
Продолжительность: 57:50
Источник (релизер): gssmg7
Наличие сканов в содержимом раздачи: нет
Треклист:
1. You Displaced Me By Your Singing (15:57)
2. My Ears Were Ringing! (14:22)
3. My Fingers Were Glue (14:10)
4. As Each Note Rang True (13:21)
 
Лог создания рипа
Exact Audio Copy V1.0 beta 2 from 29. April 2011
EAC extraction logfile from 14. July 2015, 20:02
Evans-Gustafsson-Fernandez / Kopros Lithos
Used drive : Optiarc DVD RW AD-5280S Adapter: 1 ID: 1
Read mode : Secure
Utilize accurate stream : Yes
Defeat audio cache : Yes
Make use of C2 pointers : No
Read offset correction : 48
Overread into Lead-In and Lead-Out : No
Fill up missing offset samples with silence : Yes
Delete leading and trailing silent blocks : No
Null samples used in CRC calculations : Yes
Used interface : Installed external ASPI interface
Used output format : User Defined Encoder
Selected bitrate : 128 kBit/s
Quality : High
Add ID3 tag : No
Command line compressor : C:\Program Files\FLAC\flac.exe
Additional command line options : -V -8 -T "Genre=%genre%" -T "Artist=%artist%" -T "Title=%title%" -T "Album=%albumtitle%" -T "Date=%year%" -T "Tracknumber=%tracknr%" -T "Comment=%comment%" %source%
TOC of the extracted CD
Track | Start | Length | Start sector | End sector
---------------------------------------------------------
1 | 0:00.00 | 15:57.22 | 0 | 71796
2 | 15:57.22 | 14:22.21 | 71797 | 136467
3 | 30:19.43 | 14:10.01 | 136468 | 200218
4 | 44:29.44 | 13:21.19 | 200219 | 260312
Range status and errors
Selected range
Filename C:\Evans-Gustafsson-Fernandez (2010) - Kopros Lithos\Evans-Gustafsson-Fernandez (2010) - Kopros Lithos.wav
Peak level 97.9 %
Extraction speed 8.1 X
Range quality 100.0 %
Copy CRC 8B0399D5
Copy OK
No errors occurred
AccurateRip summary
Track 1 accurately ripped (confidence 3) [C8C91AC9] (AR v2)
Track 2 accurately ripped (confidence 3) [88F6FF53] (AR v2)
Track 3 accurately ripped (confidence 3) [601B7B7E] (AR v2)
Track 4 accurately ripped (confidence 3) [043F2CC2] (AR v2)
All tracks accurately ripped
End of status report
==== Log checksum 8072D389B3694CECAEEA40A731CD78405A47435CEC1605D5EB734C1FA53F07A4 ====
 
Содержание индексной карты (.CUE)
REM GENRE Jazz
REM DATE 2010
REM DISCID 350D8E04
REM COMMENT "ExactAudioCopy v1.0b2"
PERFORMER "Evans-Gustafsson-Fernandez"
TITLE "Kopros Lithos"
FILE "Evans-Gustafsson-Fernandez (2010) - Kopros Lithos.flac" WAVE
TRACK 01 AUDIO
TITLE "You Displaced Me By Your Singing"
PERFORMER "Evans-Gustafsson-Fernandez"
ISRC 000000000000
INDEX 01 00:00:00
TRACK 02 AUDIO
TITLE "My Ears Were Ringing!"
PERFORMER "Evans-Gustafsson-Fernandez"
ISRC 000000000000
INDEX 01 15:57:22
TRACK 03 AUDIO
TITLE "My Fingers Were Glue"
PERFORMER "Evans-Gustafsson-Fernandez"
ISRC 000000000000
INDEX 01 30:19:43
TRACK 04 AUDIO
TITLE "As Each Note Rang True"
PERFORMER "Evans-Gustafsson-Fernandez"
ISRC 000000000000
INDEX 01 44:29:44
 
Доп. информация
Recorded at Oregon Club, Poznan, Poland, Dec. 9th, 2009
 
Состав
Mats Gustafsson - baritone sax, alto fluteophone
Agustí Fernández - piano
Peter Evans - trumpet
По всем вопросам пишите личное сообщение пользователю M0p94ok.
14:31
145
Нет комментариев. Ваш будет первым!