Вы используете незарегистрированную версию компонента "Вкладки"!

Поиск

(Free Jazz, Avant-Garde, Ethnic Jazz) [CD] Damjans - Giipuja - 2012, FLAC (tracks+.cue), lossless

(Free Jazz, Avant-Garde, Ethnic Jazz) [CD] Damjans - Giipuja - 2012, FLAC (tracks+.cue), lossless
Треклист:
Damjans - Giipuja
Жанр: Free Jazz, Avant-Garde, Ethnic Jazz
Носитель: CD
Страна-производитель диска (релиза): Croatia
Год издания: 2012
Издатель (лейбл): Aquarius Records
Номер по каталогу: CD 459-12
Страна исполнителя (группы): Croatia
Аудиокодек: FLAC (*.flac)
Тип рипа: tracks+.cue
Битрейт аудио: lossless
Продолжительность: 42:27
Источник (релизер): what.cd (omen)
Наличие сканов в содержимом раздачи: да (сетевые)
Треклист:
01. Cindra Rules (07:24)
02. Cvice moje4 (08:57)
03. New dvojnice (04:22)
04. Lipo jadri novi brod po moru (05:59)
05. Hitala je Mare pescaci va more (03:12)
06. Nemantinjada (02:49)
07. Noc (07:47)
08. Mess (01:56)
 
Лог создания рипа
Exact Audio Copy V1.0 beta 4 from 7. December 2014
EAC extraction logfile from 18. March 2015, 13:11
Damjans / Giipuja
Used drive : hp DVD A DS8A9SH Adapter: 1 ID: 0
Read mode : Secure
Utilize accurate stream : Yes
Defeat audio cache : Yes
Make use of C2 pointers : No
Read offset correction : 6
Overread into Lead-In and Lead-Out : No
Fill up missing offset samples with silence : Yes
Delete leading and trailing silent blocks : No
Null samples used in CRC calculations : Yes
Used interface : Native Win32 interface for Win NT & 2000
Gap handling : Appended to previous track
Used output format : User Defined Encoder
Selected bitrate : 1024 kBit/s
Quality : High
Add ID3 tag : No
Command line compressor : C:\Program Files (x86)\Exact Audio Copy\Flac\flac.exe
Additional command line options : -8 -V -T "ARTIST=%artist%" -T "TITLE=%title%" -T "ALBUM=%albumtitle%" -T "DATE=%year%" -T "TRACKNUMBER=%tracknr%" -T "GENRE=%genre%" -T "PERFORMER=%albuminterpret%" -T "COMPOSER=%composer%" %haslyrics%--tag-from-file=LYRICS="%lyricsfile%"%haslyrics% -T "ALBUMARTIST=%albumartist%" -T "DISCNUMBER=%cdnumber%" -T "TOTALDISCS=%totalcds%" -T "TOTALTRACKS=%numtracks%" -T "COMMENT=%comment%" %source% -o %dest%
TOC of the extracted CD
Track | Start | Length | Start sector | End sector
---------------------------------------------------------
1 | 0:00.00 | 7:23.49 | 0 | 33273
2 | 7:23.49 | 8:57.16 | 33274 | 73564
3 | 16:20.65 | 4:21.68 | 73565 | 93207
4 | 20:42.58 | 5:59.30 | 93208 | 120162
5 | 26:42.13 | 3:12.10 | 120163 | 134572
6 | 29:54.23 | 2:49.21 | 134573 | 147268
7 | 32:43.44 | 7:47.08 | 147269 | 182301
8 | 40:30.52 | 1:56.37 | 182302 | 191038
Track 1
Filename C:\Damjans - Giipuja (2012) [FLAC]\01 - Cindra Rules.wav
Pre-gap length 0:00:02.00
Peak level 94.9 %
Extraction speed 1.2 X
Track quality 100.0 %
Test CRC 15B36218
Copy CRC 15B36218
Track not present in AccurateRip database
Copy OK
Track 2
Filename C:\Damjans - Giipuja (2012) [FLAC]\02 - Cvice moje4.wav
Peak level 94.8 %
Extraction speed 1.5 X
Track quality 100.0 %
Test CRC A3F8121B
Copy CRC A3F8121B
Track not present in AccurateRip database
Copy OK
Track 3
Filename C:\Damjans - Giipuja (2012) [FLAC]\03 - New dvojnice.wav
Peak level 94.8 %
Extraction speed 1.4 X
Track quality 99.9 %
Test CRC 55A4DE58
Copy CRC 55A4DE58
Track not present in AccurateRip database
Copy OK
Track 4
Filename C:\Damjans - Giipuja (2012) [FLAC]\04 - Lipo jadri novi brod po moru.wav
Peak level 94.9 %
Extraction speed 1.7 X
Track quality 100.0 %
Test CRC 2EFFAC16
Copy CRC 2EFFAC16
Track not present in AccurateRip database
Copy OK
Track 5
Filename C:\Damjans - Giipuja (2012) [FLAC]\05 - Hitala je Mare pescaci va more.wav
Peak level 94.8 %
Extraction speed 1.7 X
Track quality 100.0 %
Test CRC 99A8FBCC
Copy CRC 99A8FBCC
Track not present in AccurateRip database
Copy OK
Track 6
Filename C:\Damjans - Giipuja (2012) [FLAC]\06 - Nemantinjada.wav
Peak level 94.8 %
Extraction speed 1.5 X
Track quality 99.9 %
Test CRC 1E714765
Copy CRC 1E714765
Track not present in AccurateRip database
Copy OK
Track 7
Filename C:\Damjans - Giipuja (2012) [FLAC]\07 - Noc.wav
Peak level 94.8 %
Extraction speed 1.9 X
Track quality 99.9 %
Test CRC 4E6BCD5C
Copy CRC 4E6BCD5C
Track not present in AccurateRip database
Copy OK
Track 8
Filename C:\Damjans - Giipuja (2012) [FLAC]\08 - Mess.wav
Peak level 83.7 %
Extraction speed 1.7 X
Track quality 100.0 %
Test CRC EEBA24D3
Copy CRC EEBA24D3
Track not present in AccurateRip database
Copy OK
None of the tracks are present in the AccurateRip database
No errors occurred
End of status report
---- CUETools DB Plugin V2.1.4
[CTDB TOCID: jCcP8pR6UpdXgUASiho8qCpMJSU-] found
Submit result: jCcP8pR6UpdXgUASiho8qCpMJSU- has been confirmed
Track | CTDB Status
1 | (1/1) Accurately ripped
2 | (1/1) Accurately ripped
3 | (1/1) Accurately ripped
4 | (1/1) Accurately ripped
5 | (1/1) Accurately ripped
6 | (1/1) Accurately ripped
7 | (1/1) Accurately ripped
8 | (1/1) Accurately ripped
==== Log checksum CCCEF76113B33374608D8C696150841154D35EED2CEA0032A3DA13DC3B16795C ====
 
Содержание индексной карты (.CUE)
REM GENRE Jazz
REM DATE 2012
REM DISCID 6F09F308
REM COMMENT "ExactAudioCopy v1.0b4"
PERFORMER "Damjans"
TITLE "Giipuja"
FILE "01 - Cindra Rules.wav" WAVE
TRACK 01 AUDIO
TITLE "Cindra Rules"
PERFORMER "Damjans"
ISRC HRA101205185
INDEX 01 00:00:00
FILE "02 - Cvice moje4.wav" WAVE
TRACK 02 AUDIO
TITLE "Cvice moje4"
PERFORMER "Damjans"
ISRC HRA101205186
INDEX 01 00:00:00
FILE "03 - New dvojnice.wav" WAVE
TRACK 03 AUDIO
TITLE "New dvojnice"
PERFORMER "Damjans"
ISRC HRA101205187
INDEX 01 00:00:00
FILE "04 - Lipo jadri novi brod po moru.wav" WAVE
TRACK 04 AUDIO
TITLE "Lipo jadri novi brod po moru"
PERFORMER "Damjans"
ISRC HRA101205188
INDEX 01 00:00:00
FILE "05 - Hitala je Mare pescaci va more.wav" WAVE
TRACK 05 AUDIO
TITLE "Hitala je Mare pescaci va more"
PERFORMER "Damjans"
ISRC HRA101205189
INDEX 01 00:00:00
FILE "06 - Nemantinjada.wav" WAVE
TRACK 06 AUDIO
TITLE "Nemantinjada"
PERFORMER "Damjans"
ISRC HRA101205190
INDEX 01 00:00:00
FILE "07 - Noc.wav" WAVE
TRACK 07 AUDIO
TITLE "Noc"
PERFORMER "Damjans"
ISRC HRA101205191
INDEX 01 00:00:00
FILE "08 - Mess.wav" WAVE
TRACK 08 AUDIO
TITLE "Mess"
PERFORMER "Damjans"
ISRC HRA101205192
INDEX 01 00:00:00
 
Лог проверки качества
AUDIOCHECKER v2.0 beta (build 457) - by Dester - opdester@freemail.hu
~~~~~~~~~~~~~~~~~~~~~~~~~~~~~~~~~~
-=== DO NOT EDIT THIS FILE! ===-
Path: ...\Damjans - Giipuja (2012) [FLAC]
1 -=- 01 - Cindra Rules.flac -=- CDDA (100%)
2 -=- 02 - Cvice moje4.flac -=- CDDA (100%)
3 -=- 03 - New dvojnice.flac -=- CDDA (43%)
4 -=- 04 - Lipo jadri novi brod po moru.flac -=- CDDA (100%)
5 -=- 05 - Hitala je Mare pescaci va more.flac -=- MPEG (99%)
6 -=- 06 - Nemantinjada.flac -=- CDDA (100%)
7 -=- 07 - Noc.flac -=- CDDA (100%)
8 -=- 08 - Mess.flac -=- CDDA (100%)
Summary 80,50% CDDA
6935940
 
Состав
Damjan Grbac - double bass
Tonči Grabušić - drums, percussion
Dario Marušić - sopela, dvojnice, cindra, vocal
Klaus Gesing - soprano sax, bass clarinet
По всем вопросам пишите личное сообщение пользователю M0p94ok.
14:31
152
Нет комментариев. Ваш будет первым!