Вы используете незарегистрированную версию компонента "Вкладки"!

Поиск

(Free Jazz, NotTwo Records) [CD] Nu Band (Thomas Heberer, Mark Whitecage, Joe Fonda, Lou Grassi) - The Cosmological Constant - 2015, FLAC (tracks+.cue), lossless

(Free Jazz, NotTwo Records) [CD] Nu Band (Thomas Heberer, Mark Whitecage, Joe Fonda, Lou Grassi) - The Cosmological Constant - 2015, FLAC (tracks+.cue), lossless
Треклист:
Nu Band / The Cosmological Constant
Жанр: Free Jazz, NotTwo Records
Носитель: CD
Страна-производитель диска (релиза): Poland
Год издания: 2015
Издатель (лейбл): NotTwo Records
Номер по каталогу: MW 923-2
Аудиокодек: FLAC (*.flac)
Тип рипа: tracks+.cue
Битрейт аудио: lossless
Продолжительность: 1:08:49
Источник (релизер): я
Наличие сканов в содержимом раздачи: да
Треклист:
1. Yuma (Thomas Heberer) 7:50
2. Listen to Dr. Cornel West (Joe Fonda) 8:58
3. Dark Dawn in Aurora (Lou Grassi) 7:46
4. 5 O’Clock Follies (Mark Whitecage) 6:09
5. Paregmenon (Thomas Heberer) 5:10
6. The Unnecessary Correction (Lou Grassi) 9:30
7. The Path (Joe Fonda) 6:03
8. Time Table (Joe Fonda) 13:58
9. The Cosmological Constant (Lou Grassi) 3:26
Recorded April 18th, 2014 at Tedesco Studios, Paramus N.J.
Thomas Heberer – Cornet
Mark Whitecage – Alto Saxophone & Clarinet
Joe Fonda – Bass
Lou Grassi – Drums & Percussion
 
Лог создания рипа
Exact Audio Copy V1.0 beta 6 from 9. April 2015
EAC extraction logfile from 25. April 2015, 13:02
Nu Band / The Cosmological Constant
Used drive : SlimtypeeNAU508 5 Adapter: 1 ID: 1
Read mode : Secure
Utilize accurate stream : Yes
Defeat audio cache : Yes
Make use of C2 pointers : No
Read offset correction : 6
Overread into Lead-In and Lead-Out : No
Fill up missing offset samples with silence : Yes
Delete leading and trailing silent blocks : No
Null samples used in CRC calculations : Yes
Used interface : Native Win32 interface for Win NT & 2000
Gap handling : Appended to previous track
Used output format : User Defined Encoder
Selected bitrate : 768 kBit/s
Quality : High
Add ID3 tag : No
Command line compressor : C:\Program Files (x86)\Exact Audio Copy\Flac\flac.exe
Additional command line options : -8 -V -T "ARTIST=%artist%" -T "TITLE=%title%" -T "ALBUM=%albumtitle%" -T "DATE=%year%" -T "TRACKNUMBER=%tracknr%" -T "TOTALTRACKS=%numtracks%" -T "GENRE=%genre%" -T "ALBUMARTIST=%albumartist%" -T "ALBUM ARTIST=%albumartist%" -T "COMMENT=EAC Secure Mode, Test & Copy, AccurateRip, FLAC -8" %source%
TOC of the extracted CD
Track | Start | Length | Start sector | End sector
---------------------------------------------------------
1 | 0:00.00 | 7:49.60 | 0 | 35234
2 | 7:49.60 | 8:57.38 | 35235 | 75547
3 | 16:47.23 | 7:45.46 | 75548 | 110468
4 | 24:32.69 | 6:09.13 | 110469 | 138156
5 | 30:42.07 | 5:10.19 | 138157 | 161425
6 | 35:52.26 | 9:29.39 | 161426 | 204139
7 | 45:21.65 | 6:03.11 | 204140 | 231375
8 | 51:25.01 | 13:58.36 | 231376 | 294261
9 | 65:23.37 | 3:25.51 | 294262 | 309687
Track 1
Filename C:\EAC rips\01 - Yuma.wav
Pre-gap length 0:00:02.00
Peak level 69.5 %
Extraction speed 2.2 X
Track quality 99.9 %
Test CRC 2EAB86ED
Copy CRC 2EAB86ED
Track not present in AccurateRip database
Copy OK
Track 2
Filename C:\EAC rips\02 - Listen to Dr. Cornel West.wav
Pre-gap length 0:00:01.45
Peak level 72.4 %
Extraction speed 2.7 X
Track quality 99.9 %
Test CRC A0DAF59A
Copy CRC A0DAF59A
Track not present in AccurateRip database
Copy OK
Track 3
Filename C:\EAC rips\03 - Dark Dawn in Aurora.wav
Pre-gap length 0:00:02.13
Peak level 72.2 %
Extraction speed 3.4 X
Track quality 100.0 %
Test CRC 6258004B
Copy CRC 6258004B
Track not present in AccurateRip database
Copy OK
Track 4
Filename C:\EAC rips\04 - 5 O'Clock Follies.wav
Pre-gap length 0:00:01.59
Peak level 63.7 %
Extraction speed 3.1 X
Track quality 99.9 %
Test CRC F3F8A6C1
Copy CRC F3F8A6C1
Track not present in AccurateRip database
Copy OK
Track 5
Filename C:\EAC rips\05 - Paregmenon.wav
Pre-gap length 0:00:02.12
Peak level 39.6 %
Extraction speed 3.7 X
Track quality 100.0 %
Test CRC 7DE1A148
Copy CRC 7DE1A148
Track not present in AccurateRip database
Copy OK
Track 6
Filename C:\EAC rips\06 - The Unnecessary Correction.wav
Pre-gap length 0:00:02.18
Peak level 70.9 %
Extraction speed 4.0 X
Track quality 100.0 %
Test CRC 83D04574
Copy CRC 83D04574
Track not present in AccurateRip database
Copy OK
Track 7
Filename C:\EAC rips\07 - The Path.wav
Pre-gap length 0:00:03.00
Peak level 44.0 %
Extraction speed 4.1 X
Track quality 100.0 %
Test CRC A7541910
Copy CRC A7541910
Track not present in AccurateRip database
Copy OK
Track 8
Filename C:\EAC rips\08 - Time Table.wav
Pre-gap length 0:00:02.15
Peak level 48.4 %
Extraction speed 4.5 X
Track quality 100.0 %
Test CRC 5F8154AC
Copy CRC 5F8154AC
Track not present in AccurateRip database
Copy OK
Track 9
Filename C:\EAC rips\09 - The Cosmological Constant.wav
Pre-gap length 0:00:04.09
Peak level 59.5 %
Extraction speed 4.5 X
Track quality 100.0 %
Test CRC D609B703
Copy CRC D609B703
Track not present in AccurateRip database
Copy OK
None of the tracks are present in the AccurateRip database
No errors occurred
End of status report
---- CUETools DB Plugin V2.1.6
[CTDB TOCID: kFuHVLZQJSwvr0Sn66jXClNAJjc-] disk not present in database
Submit result: kFuHVLZQJSwvr0Sn66jXClNAJjc- has been uploaded
==== Log checksum E2CD89A8DE268F92DA81964A69DB447F7C7A8BC1F6460DB92733DCEF41242FAA ====
 
Содержание индексной карты (.CUE)
REM GENRE "NotTwo MW 923-2"
REM DATE 2015
REM DISCID 78102109
REM COMMENT "ExactAudioCopy v1.0b6"
PERFORMER "Nu Band"
TITLE "The Cosmological Constant "
FILE "01 - Yuma.wav" WAVE
TRACK 01 AUDIO
TITLE "Yuma "
PERFORMER "Nu Band"
INDEX 01 00:00:00
TRACK 02 AUDIO
TITLE "Listen to Dr. Cornel West"
PERFORMER "Nu Band"
INDEX 00 07:48:15
FILE "02 - Listen to Dr. Cornel West.wav" WAVE
INDEX 01 00:00:00
TRACK 03 AUDIO
TITLE "Dark Dawn in Aurora "
PERFORMER "Nu Band"
INDEX 00 08:55:25
FILE "03 - Dark Dawn in Aurora.wav" WAVE
INDEX 01 00:00:00
TRACK 04 AUDIO
TITLE "5 O'Clock Follies "
PERFORMER "Nu Band"
INDEX 00 07:43:62
FILE "04 - 5 O'Clock Follies.wav" WAVE
INDEX 01 00:00:00
TRACK 05 AUDIO
TITLE "Paregmenon "
PERFORMER "Nu Band"
INDEX 00 06:07:01
FILE "05 - Paregmenon.wav" WAVE
INDEX 01 00:00:00
TRACK 06 AUDIO
TITLE "The Unnecessary Correction "
PERFORMER "Nu Band"
INDEX 00 05:08:01
FILE "06 - The Unnecessary Correction.wav" WAVE
INDEX 01 00:00:00
TRACK 07 AUDIO
TITLE "The Path "
PERFORMER "Nu Band"
INDEX 00 09:26:39
FILE "07 - The Path.wav" WAVE
INDEX 01 00:00:00
TRACK 08 AUDIO
TITLE "Time Table"
PERFORMER "Nu Band"
INDEX 00 06:00:71
FILE "08 - Time Table.wav" WAVE
INDEX 01 00:00:00
TRACK 09 AUDIO
TITLE "The Cosmological Constant "
PERFORMER "Nu Band"
INDEX 00 13:54:27
FILE "09 - The Cosmological Constant.wav" WAVE
INDEX 01 00:00:00
По всем вопросам пишите личное сообщение пользователю M0p94ok.
14:32
159
Нет комментариев. Ваш будет первым!