Вы используете незарегистрированную версию компонента "Вкладки"!

Поиск

(Free Improvisation) [CD] Tchangodei, Itaru Oki, Kent Carter - Jeux d'ombres - 1991, FLAC (tracks+.cue), lossless

(Free Improvisation) [CD] Tchangodei, Itaru Oki, Kent Carter - Jeux d'ombres - 1991, FLAC (tracks+.cue), lossless
Треклист:
Tchangodei, Itaru Oki, Kent Carter / Jeux d'ombres
Жанр: Free Improvisation
Носитель: CD
Страна-производитель диска (релиза): France
Год издания: 1991
Издатель (лейбл): Volcanic Records
Номер по каталогу: 30030
Аудиокодек: FLAC (*.flac)
Тип рипа: tracks+.cue
Битрейт аудио: lossless
Продолжительность: 1:07:56
Источник (релизер): я
Наличие сканов в содержимом раздачи: да
Треклист:
1. Rencontres 12:59
2. L’Explosion 17:26
3. Le Passage 7:50
4. Gombo 14:31
5. D’instant 15:11
Tchangodei – Piano
Itaru Oki – Trumpet, Flute
Kent Carter – Double Bass
 
Лог создания рипа
Exact Audio Copy V1.1 from 23. June 2015
EAC extraction logfile from 17. July 2015, 13:36
Tchangodei, Itaru Oki, Kent Carter / Jeux d'ombres
Used drive : SlimtypeeNAU508 5 Adapter: 1 ID: 1
Read mode : Secure
Utilize accurate stream : Yes
Defeat audio cache : Yes
Make use of C2 pointers : No
Read offset correction : 6
Overread into Lead-In and Lead-Out : No
Fill up missing offset samples with silence : Yes
Delete leading and trailing silent blocks : No
Null samples used in CRC calculations : Yes
Used interface : Native Win32 interface for Win NT & 2000
Gap handling : Appended to previous track
Used output format : User Defined Encoder
Selected bitrate : 768 kBit/s
Quality : High
Add ID3 tag : No
Command line compressor : C:\Program Files (x86)\Exact Audio Copy\Flac\flac.exe
Additional command line options : -8 -V -T "ARTIST=%artist%" -T "TITLE=%title%" -T "ALBUM=%albumtitle%" -T "DATE=%year%" -T "TRACKNUMBER=%tracknr%" -T "TOTALTRACKS=%numtracks%" -T "GENRE=%genre%" -T "ALBUMARTIST=%albumartist%" -T "ALBUM ARTIST=%albumartist%" -T "COMMENT=EAC Secure Mode, Test & Copy, AccurateRip, FLAC -8" %source%
TOC of the extracted CD
Track | Start | Length | Start sector | End sector
---------------------------------------------------------
1 | 0:00.32 | 12:58.45 | 32 | 58426
2 | 12:59.02 | 17:26.23 | 58427 | 136899
3 | 30:25.25 | 7:49.45 | 136900 | 172119
4 | 38:14.70 | 14:30.47 | 172120 | 237416
5 | 52:45.42 | 15:10.38 | 237417 | 305704
Track 1
Filename C:\EAC rips\01 - Rencontres.wav
Pre-gap length 0:00:02.32
Peak level 97.7 %
Extraction speed 1.3 X
Track quality 100.0 %
Test CRC F48558AD
Copy CRC F48558AD
Accurately ripped (confidence 2) [95A2260B] (AR v2)
Copy OK
Track 2
Filename C:\EAC rips\02 - L'Explosion.wav
Pre-gap length 0:00:04.37
Peak level 95.0 %
Extraction speed 1.8 X
Track quality 100.0 %
Test CRC 07A7DC68
Copy CRC 07A7DC68
Accurately ripped (confidence 2) [2676079C] (AR v2)
Copy OK
Track 3
Filename C:\EAC rips\03 - Le Passage.wav
Pre-gap length 0:00:03.40
Peak level 81.8 %
Extraction speed 2.0 X
Track quality 100.0 %
Test CRC 719F9F2A
Copy CRC 719F9F2A
Accurately ripped (confidence 2) [52F6A059] (AR v2)
Copy OK
Track 4
Filename C:\EAC rips\04 - Gombo.wav
Pre-gap length 0:00:01.03
Peak level 93.0 %
Extraction speed 2.3 X
Track quality 100.0 %
Test CRC 24456908
Copy CRC 24456908
Accurately ripped (confidence 2) [01EE1161] (AR v2)
Copy OK
Track 5
Filename C:\EAC rips\05 - D'instant.wav
Pre-gap length 0:00:03.60
Peak level 90.0 %
Extraction speed 2.5 X
Track quality 100.0 %
Test CRC FB79E4E6
Copy CRC FB79E4E6
Accurately ripped (confidence 2) [D33FFCA2] (AR v2)
Copy OK
All tracks accurately ripped
No errors occurred
End of status report
---- CUETools DB Plugin V2.1.6
[CTDB TOCID: EPLB_IlY3LLM7vW093YS0ARiwhQ-] disk not present in database
Submit result: EPLB_IlY3LLM7vW093YS0ARiwhQ- has been uploaded
==== Log checksum C54A84D2CC082CA582A08076A71B65C8E939C6AA8A9D78B5C550B1C5C3442296 ====
 
Содержание индексной карты (.CUE)
REM GENRE "Volcanic Records 30030"
REM DATE 1991
REM DISCID 480FEC05
REM COMMENT "ExactAudioCopy v1.1"
PERFORMER "Tchangodei, Itaru Oki, Kent Carter"
TITLE "Jeux d'ombres"
FILE "01 - Rencontres.wav" WAVE
TRACK 01 AUDIO
TITLE "Rencontres"
PERFORMER "Tchangodei, Itaru Oki, Kent Carter"
PREGAP 00:00:32
INDEX 01 00:00:00
TRACK 02 AUDIO
TITLE "L'Explosion"
PERFORMER "Tchangodei, Itaru Oki, Kent Carter"
INDEX 00 12:54:08
FILE "02 - L'Explosion.wav" WAVE
INDEX 01 00:00:00
TRACK 03 AUDIO
TITLE "Le Passage"
PERFORMER "Tchangodei, Itaru Oki, Kent Carter"
INDEX 00 17:22:58
FILE "03 - Le Passage.wav" WAVE
INDEX 01 00:00:00
TRACK 04 AUDIO
TITLE "Gombo"
PERFORMER "Tchangodei, Itaru Oki, Kent Carter"
INDEX 00 07:48:42
FILE "04 - Gombo.wav" WAVE
INDEX 01 00:00:00
TRACK 05 AUDIO
TITLE "D'instant"
PERFORMER "Tchangodei, Itaru Oki, Kent Carter"
INDEX 00 14:26:62
FILE "05 - D'instant.wav" WAVE
INDEX 01 00:00:00
По всем вопросам пишите личное сообщение пользователю M0p94ok.
14:33
194
Нет комментариев. Ваш будет первым!