Вы используете незарегистрированную версию компонента "Вкладки"!

Поиск

(Free Jazz, Contemporary Jazz) [CD] Claudio Fasoli Quintet & Solo (Hilaria Kramer, Piero Leveratto, Marco Vaggi, Gianni Cazzola) - For Once & Egotrip - 2001, FLAC (image+.cue), lossless

(Free Jazz, Contemporary Jazz) [CD] Claudio Fasoli Quintet & Solo (Hilaria Kramer, Piero Leveratto, Marco Vaggi, Gianni Cazzola) - For Once & Egotrip - 2001, FLAC (image+.cue), lossless
Треклист:
Claudio Fasoli Quintet & Solo / For Once & Egotrip
Жанр: Free Jazz, Contemporary Jazz
Носитель: CD
Страна-производитель диска (релиза): Italy
Год издания: 2001
Издатель (лейбл): Splasc(H) Records
Номер по каталогу: CDH515.2
Аудиокодек: FLAC (*.flac)
Тип рипа: image+.cue
Битрейт аудио: lossless
Продолжительность: 77:23
Источник (релизер): Bumsteel
Наличие сканов в содержимом раздачи: да
Треклист:
1 My Dream 4:50
2 Flight 6:54
3 Time Grew 2:44
4 Revealed Mysteries 2:59
5 Egotrip 2:53
6 Difference Of Emphasis 9:10
7 Self-Portrait 2:36
8 Cha 3:55
9 Inner Galaxy 3:28
10 Pink Punk 2:58
11 Wiechmann 6:36
12 For Once 5:20
13 Talk 2:58
14 Throat Dance 2:04
15 Off 3:06
16 Imago 2:01
17 Questions 8:09
18 Lunatic 3:49
 
Лог создания рипа
Exact Audio Copy V0.99 prebeta 5 from 4. May 2009
Отчёт EAC об извлечении, выполненном 29. марта 2015, 15:00
Claudio Fasoli / For Once & Egotrip
Дисковод: TSSTcorpCDDVDW SH-224DB Adapter: 0 ID: 0
Режим чтения : Достоверность
Использование точного потока : Да
Отключение кэша аудио : Да
Использование указателей C2 : Нет
Коррекция смещения при чтении : 6
Способность читать области Lead-in и Lead-out : Нет
Заполнение пропущенных сэмплов тишиной : Да
Удаление блоков с тишиной в начале и конце : Нет
При вычислениях CRC использовались нулевые сэмплы : Да
Интерфейс : Встроенный Win32-интерфейс для Win NT/2000
Выходной формат : Пользовательский кодировщик
Выбранный битрейт : 192 kBit/s
Качество : Высокий
Добавление ID3-тэга : Нет
Утилита сжатия : F:\EAC\Flac\flac.exe
Дополнительные параметры : -T "DATE=%y" -T "GENRE=%m" -8 -V %s
TOC извлечённого CD
Трек | Старт | Длительность | Начальный сектор | Конечный сектор
---------------------------------------------------------------------
1 | 0:00.00 | 4:57.35 | 0 | 22309
2 | 4:57.35 | 7:07.62 | 22310 | 54396
3 | 12:05.22 | 2:47.68 | 54397 | 66989
4 | 14:53.15 | 3:02.10 | 66990 | 80649
5 | 17:55.25 | 2:56.57 | 80650 | 93906
6 | 20:52.07 | 9:15.25 | 93907 | 135556
7 | 30:07.32 | 2:41.70 | 135557 | 147701
8 | 32:49.27 | 3:58.25 | 147702 | 165576
9 | 36:47.52 | 3:28.43 | 165577 | 181219
10 | 40:16.20 | 3:00.35 | 181220 | 194754
11 | 43:16.55 | 6:43.22 | 194755 | 225001
12 | 50:00.02 | 5:02.25 | 225002 | 247676
13 | 55:02.27 | 3:01.23 | 247677 | 261274
14 | 58:03.50 | 2:08.42 | 261275 | 270916
15 | 60:12.17 | 3:10.15 | 270917 | 285181
16 | 63:22.32 | 2:02.33 | 285182 | 294364
17 | 65:24.65 | 8:14.67 | 294365 | 331481
18 | 73:39.57 | 3:43.53 | 331482 | 348259
Характеристики диапазона извлечения и сообщения об ошибках
Выбранный диапазон
Имя файла E:\!Tr!Tr!Tr!Tr!Tr!Tr!Tr!\EAC 3\Новая папка (5)\Claudio Fasoli - For Once & Egotrip.wav
Пиковый уровень 99.0 %
Качество диапазона 100.0 %
CRC копии 513F07C0
Копирование... OK
Ошибок не произошло
Конец отчёта
 
Содержание индексной карты (.CUE)
REM GENRE Jazz
REM DATE 2001
REM DISCID 0F122312
REM COMMENT "ExactAudioCopy v0.99pb5"
PERFORMER "Claudio Fasoli"
TITLE "For Once & Egotrip"
FILE "Claudio Fasoli - For Once & Egotrip.flac" WAVE
TRACK 01 AUDIO
TITLE "My Dream"
PERFORMER "Claudio Fasoli"
INDEX 01 00:00:00
TRACK 02 AUDIO
TITLE "Flight"
PERFORMER "Claudio Fasoli"
INDEX 01 04:57:35
TRACK 03 AUDIO
TITLE "Time Grew"
PERFORMER "Claudio Fasoli"
INDEX 01 12:05:22
TRACK 04 AUDIO
TITLE "Revealed Mysteries"
PERFORMER "Claudio Fasoli"
INDEX 01 14:53:15
TRACK 05 AUDIO
TITLE "Egotrip"
PERFORMER "Claudio Fasoli"
INDEX 01 17:55:25
TRACK 06 AUDIO
TITLE "Difference Of Emphasis"
PERFORMER "Claudio Fasoli"
INDEX 01 20:52:07
TRACK 07 AUDIO
TITLE "Self-Portrait"
PERFORMER "Claudio Fasoli"
INDEX 01 30:07:32
TRACK 08 AUDIO
TITLE "Cha"
PERFORMER "Claudio Fasoli"
INDEX 01 32:49:27
TRACK 09 AUDIO
TITLE "Inner Galaxy"
PERFORMER "Claudio Fasoli"
INDEX 01 36:47:52
TRACK 10 AUDIO
TITLE "Pink Punk"
PERFORMER "Claudio Fasoli"
INDEX 01 40:16:20
TRACK 11 AUDIO
TITLE "Wiechmann"
PERFORMER "Claudio Fasoli"
INDEX 01 43:16:55
TRACK 12 AUDIO
TITLE "For Once"
PERFORMER "Claudio Fasoli"
INDEX 01 50:00:02
TRACK 13 AUDIO
TITLE "Talk"
PERFORMER "Claudio Fasoli"
INDEX 01 55:02:27
TRACK 14 AUDIO
TITLE "Throat Dance"
PERFORMER "Claudio Fasoli"
INDEX 01 58:03:50
TRACK 15 AUDIO
TITLE "Off"
PERFORMER "Claudio Fasoli"
INDEX 01 60:12:17
TRACK 16 AUDIO
TITLE "Imago"
PERFORMER "Claudio Fasoli"
INDEX 01 63:22:32
TRACK 17 AUDIO
TITLE "Questions"
PERFORMER "Claudio Fasoli"
INDEX 01 65:24:65
TRACK 18 AUDIO
TITLE "Lunatic"
PERFORMER "Claudio Fasoli"
INDEX 01 73:39:57
Доп. информация: For Once, quintet, recorded on May 22, 22, 1987, at Barigozzi Studios, Milan
Egotrip, solo, recorded on March 14, May 19, June 6 and 7, 1988 at Barigozzi Studios, Milan
 
Состав
Double Bass – Marco Vaggi (tracks: 1, 2, 6, 7, 11, 12, 17), Piero Leveratto (tracks: 1, 2, 6, 7, 11, 12, 17)
Drums – Gianni Cazzola (tracks: 1, 2, 6, 7, 11, 12, 17)
Piano – Claudio Fasoli (tracks: 3 to 5, 8 to 10, 13 to 16, 18)
Soprano Saxophone [Soprano Sax], Tenor Saxophone [Tenor Sax] – Claudio Fasoli
Trumpet, Flugelhorn – Hilaria Kramer (tracks: 1, 2, 6, 7, 11, 12, 17)
По всем вопросам пишите личное сообщение пользователю M0p94ok.
14:33
148
Нет комментариев. Ваш будет первым!