Вы используете незарегистрированную версию компонента "Вкладки"!

Поиск

(Free Improvisation) [CD] Benjamin Duboc & Itaru Oki - Nobusiko - 2010, FLAC (tracks+.cue), lossless

(Free Improvisation) [CD] Benjamin Duboc & Itaru Oki - Nobusiko - 2010, FLAC (tracks+.cue), lossless
Треклист:
Benjamin Duboc & Itaru Oki / Nobusiko
Жанр: Free Improvisation
Носитель: CD
Страна-производитель диска (релиза): France
Год издания: 2010
Издатель (лейбл): Improvising Beings
Номер по каталогу: ib01
Аудиокодек: FLAC (*.flac)
Тип рипа: tracks+.cue
Битрейт аудио: lossless
Продолжительность: 45:06
Источник (релизер): я
Наличие сканов в содержимом раздачи: да
Треклист:
1. Shyukendo 3:03
2. Foudo 7:59
3. Harawata 10:19
4. Rindo 3:22
5. Yamabusi 3:36
6. Tengu no Akubi 4:04
7. Ihoujin 4:21
8. Siwasu 8:20
All music by Benjamin Duboc and Itaru Oki.
Recorded by Benjamin Duboc at Christophe Bart’s, Paris, on December 15, 2009.
Benjamin Duboc – Double Bass
Itaru Oki – Trumpet, Flugelhorn, Flutes, Tubes, Percussions
 
Лог создания рипа
Exact Audio Copy V1.0 beta 6 from 9. April 2015
EAC extraction logfile from 25. April 2015, 17:21
Benjamin Duboc & Itaru Oki / Nobusiko
Used drive : SlimtypeeNAU508 5 Adapter: 1 ID: 1
Read mode : Secure
Utilize accurate stream : Yes
Defeat audio cache : Yes
Make use of C2 pointers : No
Read offset correction : 6
Overread into Lead-In and Lead-Out : No
Fill up missing offset samples with silence : Yes
Delete leading and trailing silent blocks : No
Null samples used in CRC calculations : Yes
Used interface : Native Win32 interface for Win NT & 2000
Gap handling : Appended to previous track
Used output format : User Defined Encoder
Selected bitrate : 768 kBit/s
Quality : High
Add ID3 tag : No
Command line compressor : C:\Program Files (x86)\Exact Audio Copy\Flac\flac.exe
Additional command line options : -8 -V -T "ARTIST=%artist%" -T "TITLE=%title%" -T "ALBUM=%albumtitle%" -T "DATE=%year%" -T "TRACKNUMBER=%tracknr%" -T "TOTALTRACKS=%numtracks%" -T "GENRE=%genre%" -T "ALBUMARTIST=%albumartist%" -T "ALBUM ARTIST=%albumartist%" -T "COMMENT=EAC Secure Mode, Test & Copy, AccurateRip, FLAC -8" %source%
TOC of the extracted CD
Track | Start | Length | Start sector | End sector
---------------------------------------------------------
1 | 0:00.00 | 3:03.24 | 0 | 13748
2 | 3:03.24 | 7:59.36 | 13749 | 49709
3 | 11:02.60 | 10:18.73 | 49710 | 96132
4 | 21:21.58 | 3:22.31 | 96133 | 111313
5 | 24:44.14 | 3:36.33 | 111314 | 127546
6 | 28:20.47 | 4:04.11 | 127547 | 145857
7 | 32:24.58 | 4:21.22 | 145858 | 165454
8 | 36:46.05 | 8:19.49 | 165455 | 202928
Track 1
Filename C:\EAC rips\01 - Shyukendo.wav
Pre-gap length 0:00:02.00
Peak level 100.0 %
Extraction speed 2.0 X
Track quality 100.0 %
Test CRC FF38F868
Copy CRC FF38F868
Track not present in AccurateRip database
Copy OK
Track 2
Filename C:\EAC rips\02 - Foudo.wav
Peak level 100.0 %
Extraction speed 2.6 X
Track quality 100.0 %
Test CRC 19554304
Copy CRC 19554304
Track not present in AccurateRip database
Copy OK
Track 3
Filename C:\EAC rips\03 - Harawata.wav
Peak level 85.8 %
Extraction speed 3.0 X
Track quality 100.0 %
Test CRC 583E0B3C
Copy CRC 583E0B3C
Track not present in AccurateRip database
Copy OK
Track 4
Filename C:\EAC rips\04 - Rindo.wav
Peak level 99.5 %
Extraction speed 3.0 X
Track quality 100.0 %
Test CRC F2EEB43E
Copy CRC F2EEB43E
Track not present in AccurateRip database
Copy OK
Track 5
Filename C:\EAC rips\05 - Yamabusi.wav
Peak level 100.0 %
Extraction speed 2.7 X
Track quality 99.9 %
Test CRC 9F8CD7B7
Copy CRC 9F8CD7B7
Track not present in AccurateRip database
Copy OK
Track 6
Filename C:\EAC rips\06 - Tengu no Akubi.wav
Peak level 100.0 %
Extraction speed 3.4 X
Track quality 100.0 %
Test CRC 09404B9F
Copy CRC 09404B9F
Track not present in AccurateRip database
Copy OK
Track 7
Filename C:\EAC rips\07 - Ihoujin.wav
Peak level 100.0 %
Extraction speed 3.0 X
Track quality 99.9 %
Test CRC 6537E7AB
Copy CRC 6537E7AB
Track not present in AccurateRip database
Copy OK
Track 8
Filename C:\EAC rips\08 - Siwasu.wav
Peak level 99.9 %
Extraction speed 3.6 X
Track quality 99.9 %
Test CRC 743801D4
Copy CRC 743801D4
Track not present in AccurateRip database
Copy OK
None of the tracks are present in the AccurateRip database
No errors occurred
End of status report
---- CUETools DB Plugin V2.1.6
[CTDB TOCID: F0gwjP8VMAj_8BoxXFo7s4JiTIE-] found
Submit result: already submitted
Track | CTDB Status
1 | (1/1) Accurately ripped
2 | (1/1) Accurately ripped
3 | (1/1) Accurately ripped
4 | (1/1) Accurately ripped
5 | (1/1) Accurately ripped
6 | (1/1) Accurately ripped
7 | (1/1) Accurately ripped
8 | (1/1) Accurately ripped
==== Log checksum 85648E66A9404C7D3284977615D1A2364A26113B6B10F1C7DB09A74503BC49F8 ====
 
Содержание индексной карты (.CUE)
REM GENRE "Improvising Beings ib01"
REM DATE 2010
REM DISCID 6B0A9108
REM COMMENT "ExactAudioCopy v1.0b6"
PERFORMER "Benjamin Duboc & Itaru Oki"
TITLE "Nobusiko"
FILE "01 - Shyukendo.wav" WAVE
TRACK 01 AUDIO
TITLE "Shyukendo"
PERFORMER "Benjamin Duboc & Itaru Oki"
INDEX 01 00:00:00
FILE "02 - Foudo.wav" WAVE
TRACK 02 AUDIO
TITLE "Foudo"
PERFORMER "Benjamin Duboc & Itaru Oki"
INDEX 01 00:00:00
FILE "03 - Harawata.wav" WAVE
TRACK 03 AUDIO
TITLE "Harawata"
PERFORMER "Benjamin Duboc & Itaru Oki"
INDEX 01 00:00:00
FILE "04 - Rindo.wav" WAVE
TRACK 04 AUDIO
TITLE "Rindo"
PERFORMER "Benjamin Duboc & Itaru Oki"
INDEX 01 00:00:00
FILE "05 - Yamabusi.wav" WAVE
TRACK 05 AUDIO
TITLE "Yamabusi"
PERFORMER "Benjamin Duboc & Itaru Oki"
INDEX 01 00:00:00
FILE "06 - Tengu no Akubi.wav" WAVE
TRACK 06 AUDIO
TITLE "Tengu no Akubi"
PERFORMER "Benjamin Duboc & Itaru Oki"
INDEX 01 00:00:00
FILE "07 - Ihoujin.wav" WAVE
TRACK 07 AUDIO
TITLE "Ihoujin"
PERFORMER "Benjamin Duboc & Itaru Oki"
INDEX 01 00:00:00
FILE "08 - Siwasu.wav" WAVE
TRACK 08 AUDIO
TITLE "Siwasu"
PERFORMER "Benjamin Duboc & Itaru Oki"
INDEX 01 00:00:00
По всем вопросам пишите личное сообщение пользователю M0p94ok.
14:34
253
Нет комментариев. Ваш будет первым!