Вы используете незарегистрированную версию компонента "Вкладки"!

Поиск

(Avant-Garde Jazz, Free Improvisation) [CD] Kirk Knuffke - Arms & Hands - 2015, FLAC (tracks+.cue), lossless

(Avant-Garde Jazz, Free Improvisation) [CD] Kirk Knuffke - Arms & Hands - 2015, FLAC (tracks+.cue), lossless
Треклист:
Kirk Knuffke - Arms & Hands
Жанр: Avant-Garde Jazz, Free Improvisation
Носитель: CD
Страна-производитель диска (релиза): США
Год издания: 2015
Издатель (лейбл): Royal Potato Family
Номер по каталогу: RPF 1508
Аудиокодек: FLAC (*.flac)
Тип рипа: tracks+.cue
Битрейт аудио: lossless
Продолжительность: 62:21
Источник (релизер): Ducaconte (what)
Наличие сканов в содержимом раздачи: да
Треклист:
01. Safety Shoes (Knuffke) - 2:33
02. Bright Light (Knuffke) - 5:35
03. Root (Knuffke) - 3:56
04. Pepper (Knuffke) - 4:04
05. Chirp (Knuffke) - 5:52
06. Umbrella (Knuffke) - 3:58
07. Notwithstanding (Knuffke) - 3:06
08. Next (Knuffke) - 4:56
09. Arms & Hands (Knuffke) - 4:28
10. Elevator (Knuffke) - 3:42
11. Bonderizer (Knuffke) - 3:45
12. Tuesday (Knuffke) - 2:33
13. Use (Knuffke) - 3:40
14. Atessa (Knuffke) - 4:08
15. Thanks a Lot (Knuffke) - 6:05
Состав:
Kirk Knuffke - cornet
Bill Goodwin - drums
Mark Helias - bass
Brian Drye - trombone
Daniel Carter - alto saxophone
Jeff Lederer - soprano saxophone, tenor saxophone
Recorded at Acoustic Recording in Brooklyn, NY.
 
Лог создания рипа
Exact Audio Copy V1.0 beta 4 from 7. December 2014
EAC extraction logfile from 21. March 2015, 12:59
Kirk Knuffke / Arms & Hands
Used drive : SlimtypeeNAU508 5 Adapter: 1 ID: 1
Read mode : Secure
Utilize accurate stream : Yes
Defeat audio cache : Yes
Make use of C2 pointers : No
Read offset correction : 6
Overread into Lead-In and Lead-Out : No
Fill up missing offset samples with silence : Yes
Delete leading and trailing silent blocks : No
Null samples used in CRC calculations : Yes
Used interface : Native Win32 interface for Win NT & 2000
Gap handling : Appended to previous track
Used output format : User Defined Encoder
Selected bitrate : 896 kBit/s
Quality : High
Add ID3 tag : No
Command line compressor : C:\Program Files (x86)\Exact Audio Copy\Flac\flac.exe
Additional command line options : -8 -V -T "ARTIST=%artist%" -T "TITLE=%title%" -T "ALBUM=%albumtitle%" -T "DATE=%year%" -T "TRACKNUMBER=%tracknr%" -T "TOTALTRACKS=%numtracks%" -T "GENRE=%genre%" -T "ALBUMARTIST=%albumartist%" -T "ALBUM ARTIST=%albumartist%" -T "COMMENT=EAC Secure Mode, Test & Copy, AccurateRip, FLAC -8" %source%
TOC of the extracted CD
Track | Start | Length | Start sector | End sector
---------------------------------------------------------
1 | 0:00.00 | 2:33.00 | 0 | 11474
2 | 2:33.00 | 5:34.62 | 11475 | 36586
3 | 8:07.62 | 3:55.73 | 36587 | 54284
4 | 12:03.60 | 4:03.45 | 54285 | 72554
5 | 16:07.30 | 5:52.05 | 72555 | 98959
6 | 21:59.35 | 3:58.35 | 98960 | 116844
7 | 25:57.70 | 3:06.22 | 116845 | 130816
8 | 29:04.17 | 4:56.20 | 130817 | 153036
9 | 34:00.37 | 4:28.03 | 153037 | 173139
10 | 38:28.40 | 3:41.69 | 173140 | 189783
11 | 42:10.34 | 3:45.36 | 189784 | 206694
12 | 45:55.70 | 2:33.35 | 206695 | 218204
13 | 48:29.30 | 3:39.55 | 218205 | 234684
14 | 52:09.10 | 4:07.40 | 234685 | 253249
15 | 56:16.50 | 6:04.68 | 253250 | 280617
Track 1
Filename C:\EAC rips\01 - Safety Shoes.wav
Pre-gap length 0:00:02.00
Peak level 89.3 %
Extraction speed 1.0 X
Track quality 100.0 %
Test CRC DE677ED9
Copy CRC DE677ED9
Track not present in AccurateRip database
Copy OK
Track 2
Filename C:\EAC rips\02 - Bright Light.wav
Peak level 79.8 %
Extraction speed 1.3 X
Track quality 100.0 %
Test CRC BB28E6F9
Copy CRC BB28E6F9
Track not present in AccurateRip database
Copy OK
Track 3
Filename C:\EAC rips\03 - Root.wav
Peak level 82.5 %
Extraction speed 1.3 X
Track quality 100.0 %
Test CRC 1D916170
Copy CRC 1D916170
Track not present in AccurateRip database
Copy OK
Track 4
Filename C:\EAC rips\04 - Pepper.wav
Peak level 86.2 %
Extraction speed 1.4 X
Track quality 100.0 %
Test CRC B5A74071
Copy CRC B5A74071
Track not present in AccurateRip database
Copy OK
Track 5
Filename C:\EAC rips\05 - Chirp.wav
Peak level 85.4 %
Extraction speed 1.6 X
Track quality 100.0 %
Test CRC AB296617
Copy CRC AB296617
Track not present in AccurateRip database
Copy OK
Track 6
Filename C:\EAC rips\06 - Umbrella.wav
Peak level 63.9 %
Extraction speed 1.6 X
Track quality 100.0 %
Test CRC 3A667FA3
Copy CRC 3A667FA3
Track not present in AccurateRip database
Copy OK
Track 7
Filename C:\EAC rips\07 - Notwithstanding.wav
Peak level 83.6 %
Extraction speed 1.6 X
Track quality 100.0 %
Test CRC D7153114
Copy CRC D7153114
Track not present in AccurateRip database
Copy OK
Track 8
Filename C:\EAC rips\08 - Next.wav
Peak level 87.4 %
Extraction speed 1.8 X
Track quality 100.0 %
Test CRC 5B94F551
Copy CRC 5B94F551
Track not present in AccurateRip database
Copy OK
Track 9
Filename C:\EAC rips\09 - Arms & Hands.wav
Peak level 93.4 %
Extraction speed 1.9 X
Track quality 100.0 %
Test CRC C1476E68
Copy CRC C1476E68
Track not present in AccurateRip database
Copy OK
Track 10
Filename C:\EAC rips\10 - Elevator.wav
Peak level 88.5 %
Extraction speed 1.9 X
Track quality 100.0 %
Test CRC 67045E55
Copy CRC 67045E55
Track not present in AccurateRip database
Copy OK
Track 11
Filename C:\EAC rips\11 - Bonderizer.wav
Peak level 89.6 %
Extraction speed 2.0 X
Track quality 100.0 %
Test CRC 19E5F7B9
Copy CRC 19E5F7B9
Track not present in AccurateRip database
Copy OK
Track 12
Filename C:\EAC rips\12 - Tuesday.wav
Peak level 80.7 %
Extraction speed 1.9 X
Track quality 100.0 %
Test CRC 0FA46697
Copy CRC 0FA46697
Track not present in AccurateRip database
Copy OK
Track 13
Filename C:\EAC rips\13 - Use.wav
Peak level 87.1 %
Extraction speed 1.7 X
Track quality 99.9 %
Test CRC 70403CCB
Copy CRC 70403CCB
Track not present in AccurateRip database
Copy OK
Track 14
Filename C:\EAC rips\14 - Atessa.wav
Peak level 70.7 %
Extraction speed 2.2 X
Track quality 100.0 %
Test CRC 32CC396A
Copy CRC 32CC396A
Track not present in AccurateRip database
Copy OK
Track 15
Filename C:\EAC rips\15 - Thanks a Lot.wav
Peak level 81.6 %
Extraction speed 2.2 X
Track quality 99.9 %
Test CRC 23041CB2
Copy CRC 23041CB2
Track not present in AccurateRip database
Copy OK
None of the tracks are present in the AccurateRip database
No errors occurred
End of status report
---- CUETools DB Plugin V2.1.4
[CTDB TOCID: 5ZDHk4YGh5nYGF6SkpgJApQOz6o-] disk not present in database
Submit result: 5ZDHk4YGh5nYGF6SkpgJApQOz6o- has been uploaded
==== Log checksum 06752F141A49BDF329C3AA40F85ACD9073633AAD08E77D3950CF6106E4234666 ====
 
Содержание индексной карты (.CUE)
REM GENRE Jazz
REM DATE 2015
REM DISCID CE0E9D0F
REM COMMENT "ExactAudioCopy v1.0b4"
PERFORMER "Kirk Knuffke"
TITLE "Arms & Hands"
FILE "01 - Safety Shoes.wav" WAVE
TRACK 01 AUDIO
TITLE "Safety Shoes"
PERFORMER "Kirk Knuffke"
ISRC USME31400877
INDEX 01 00:00:00
FILE "02 - Bright Light.wav" WAVE
TRACK 02 AUDIO
TITLE "Bright Light"
PERFORMER "Kirk Knuffke"
ISRC USME31400878
INDEX 01 00:00:00
FILE "03 - Root.wav" WAVE
TRACK 03 AUDIO
TITLE "Root"
PERFORMER "Kirk Knuffke"
ISRC USME31400879
INDEX 01 00:00:00
FILE "04 - Pepper.wav" WAVE
TRACK 04 AUDIO
TITLE "Pepper"
PERFORMER "Kirk Knuffke"
ISRC USME31400880
INDEX 01 00:00:00
FILE "05 - Chirp.wav" WAVE
TRACK 05 AUDIO
TITLE "Chirp"
PERFORMER "Kirk Knuffke"
ISRC USME31400881
INDEX 01 00:00:00
FILE "06 - Umbrella.wav" WAVE
TRACK 06 AUDIO
TITLE "Umbrella"
PERFORMER "Kirk Knuffke"
ISRC USME31400882
INDEX 01 00:00:00
FILE "07 - Notwithstanding.wav" WAVE
TRACK 07 AUDIO
TITLE "Notwithstanding"
PERFORMER "Kirk Knuffke"
ISRC USME31400883
INDEX 01 00:00:00
FILE "08 - Next.wav" WAVE
TRACK 08 AUDIO
TITLE "Next"
PERFORMER "Kirk Knuffke"
ISRC USME31400884
INDEX 01 00:00:00
FILE "09 - Arms & Hands.wav" WAVE
TRACK 09 AUDIO
TITLE "Arms & Hands"
PERFORMER "Kirk Knuffke"
ISRC USME31400885
INDEX 01 00:00:00
FILE "10 - Elevator.wav" WAVE
TRACK 10 AUDIO
TITLE "Elevator"
PERFORMER "Kirk Knuffke"
ISRC USME31400886
INDEX 01 00:00:00
FILE "11 - Bonderizer.wav" WAVE
TRACK 11 AUDIO
TITLE "Bonderizer"
PERFORMER "Kirk Knuffke"
ISRC USME31400887
INDEX 01 00:00:00
FILE "12 - Tuesday.wav" WAVE
TRACK 12 AUDIO
TITLE "Tuesday"
PERFORMER "Kirk Knuffke"
ISRC USME31400888
INDEX 01 00:00:00
FILE "13 - Use.wav" WAVE
TRACK 13 AUDIO
TITLE "Use"
PERFORMER "Kirk Knuffke"
ISRC USME31400889
INDEX 01 00:00:00
FILE "14 - Atessa.wav" WAVE
TRACK 14 AUDIO
TITLE "Atessa"
PERFORMER "Kirk Knuffke"
ISRC USME31400890
INDEX 01 00:00:00
FILE "15 - Thanks a Lot.wav" WAVE
TRACK 15 AUDIO
TITLE "Thanks a Lot"
PERFORMER "Kirk Knuffke"
ISRC USME31400891
INDEX 01 00:00:00
 
Отчет CUETools
[CUETools log; Date: 20.07.2015 20:16:46; Version: 2.1.5]
[CTDB TOCID: 5ZDHk4YGh5nYGF6SkpgJApQOz6o-] found.
Track | CTDB Status
1 | (1/1) Accurately ripped
2 | (1/1) Accurately ripped
3 | (1/1) Accurately ripped
4 | (1/1) Accurately ripped
5 | (1/1) Accurately ripped
6 | (1/1) Accurately ripped
7 | (1/1) Accurately ripped
8 | (1/1) Accurately ripped
9 | (1/1) Accurately ripped
10 | (1/1) Accurately ripped
11 | (1/1) Accurately ripped
12 | (1/1) Accurately ripped
13 | (1/1) Accurately ripped
14 | (1/1) Accurately ripped
15 | (1/1) Accurately ripped
[AccurateRip ID: 00220a9a-018169bc-ce0e9d0f] found.
Track [ CRC | V2 ] Status
01 [22c112e8|cdb65bf3] (0+1/1) Accurately ripped
02 [b2b3efc3|7e972552] (0+1/1) Accurately ripped
03 [edc8489e|3c3b9aea] (0+1/1) Accurately ripped
04 [7a41456c|62e6fb74] (0+1/1) Accurately ripped
05 [0c584ad1|65e11555] (0+1/1) Accurately ripped
06 [45a64ced|a9f5df26] (0+1/1) Accurately ripped
07 [18fb93af|4f4052e3] (0+1/1) Accurately ripped
08 [18a4fa66|9ac11679] (0+1/1) Accurately ripped
09 [14f73ad6|e7d0dd78] (0+1/1) Accurately ripped
10 [0181ebfa|2e338bf4] (0+1/1) Accurately ripped
11 [a951782a|6069139c] (0+1/1) Accurately ripped
12 [eef8ec24|91aae5d6] (0+1/1) Accurately ripped
13 [140255f5|be7ebd81] (0+1/1) Accurately ripped
14 [e85f9abb|14533953] (0+1/1) Accurately ripped
15 [75d6bc65|3c46c430] (0+1/1) Accurately ripped
Track Peak [ CRC32 ] [W/O NULL] [ LOG ]
-- 93,4 [5C201245] [7C38FF92]
01 89,3 [DE677ED9] [4A6C7664] CRC32
02 79,8 [BB28E6F9] [D137D0C7] CRC32
03 82,5 [1D916170] [9E2FA527] CRC32
04 86,2 [B5A74071] [0CEC68A3] CRC32
05 85,4 [AB296617] [45D4A4E8] CRC32
06 63,9 [3A667FA3] [4905922D] CRC32
07 83,6 [D7153114] [04757780] CRC32
08 87,4 [5B94F551] [33B736B5] CRC32
09 93,4 [C1476E68] [46577E92] CRC32
10 88,5 [67045E55] [7F25B139] CRC32
11 89,6 [19E5F7B9] [2625A96F] CRC32
12 80,7 [0FA46697] [4225DA06] CRC32
13 87,1 [70403CCB] [012627DB] CRC32
14 70,7 [32CC396A] [594CE365] CRC32
15 81,6 [23041CB2] [99D1FD95] CRC32
 
Review by Mark Corroto
Sometime, watch children as they eat the M&Ms. They will separate the colors into several piles—green, red, brown, yellow, orange, and blue. It's not that each color tastes different, except for maybe blue—I don't remember ever seeing that color before. Nonetheless, they go about savoring each color batch as an independent experience. Those little candies come to mind while attending to cornetist Kirk Knuffke's release Arms & Hands. The disc (released as both CD and LP) is a trio recording with Knuffke's newest band of bassist Mark Helias and drummer Bill Goodwin, but it also features three guest musicians; saxophonists Daniel Carter and Jeff Lederer and trombonist Brian Drye. Like the little candies, the guest appearances and the trio pieces are cut from the same clothe, but there is a tempting urge to divide up this recording.
Maybe that's because Knuffke has spliced his career into so many different directions. He has braided his horn into the bands of Matt Wilson, Allison Miller, Jeff Lederer, Andrew D'Angelo, and David Ullmann bands, plus his own groups Ideal Bread, Sifter (with Wilson and Mary Halvorson) and duo outings with Jesse Stacken, Mike Pride, and Brian Drye. He also works with this trio's partners in the separate bands, Helias' quartet and Goodwin's Ornette project.
The trio music here is dazzling. The combination of Helias' bass, which has kept time for Anthony Braxton and Cecil Taylor, and Goodwin's drums which have backed Phil Woods and Art Pepper, fuses the out and the in. Tricky, off-kilter pieces like "Root" and "Tuesday" satisfy those seeking challenging compositions, yet the groove is so inviting. Knuffke's cornet playing is (as always) flawless. He can deliver burning runs, slur and chirp notes, all with full command of his most demanding instrument.
Add the guests and the music doesn't taste better, it is just coated differently. Drye's trombone flavors the opening track "Safety Shoes," a meter-shifting feel good (no great) piece. Carter swoops upon "Bright Light" and "Atessa" with a notion that it is hip to be inside Knuffke's conceptions. Lederer's appearance with soprano honors Steve Lacy on "Chirp" and his tenor gives a nod to Sonny Rollins' appreciation of cornball. The band turns a potentially clichéd tune like Ernest Tubbs' country song "Thanks a Lot" into a very hip swinger.
По всем вопросам пишите личное сообщение пользователю M0p94ok.
14:35
188
Нет комментариев. Ваш будет первым!