Вы используете незарегистрированную версию компонента "Вкладки"!

Поиск

(Free Jazz, Modern Jazz) [CD] John Tchicai, Charlie Kohlhase, Garrison Fewell - Good Night Songs (2CDs) - 2006, FLAC (tracks+.cue), lossless

(Free Jazz, Modern Jazz) [CD] John Tchicai, Charlie Kohlhase, Garrison Fewell - Good Night Songs (2CDs) - 2006, FLAC (tracks+.cue), lossless
Треклист:
John Tchicai, Charlie Kohlhase, Garrison Fewell / Good Night Songs (2CDs)
Жанр: Free Jazz, Modern Jazz
Носитель: CD
Страна-производитель диска (релиза): U.S.A.
Год издания: 2006
Издатель (лейбл): Boxholder Records
Номер по каталогу: BXH 050/051
Аудиокодек: FLAC (*.flac)
Тип рипа: tracks+.cue
Битрейт аудио: lossless
Продолжительность: 44:49 + 40:20
Источник (релизер): я
Наличие сканов в содержимом раздачи: да
Треклист:
Disc 1

1. Floating (Charlie Kohlhase) 7:19
2. The Queen of Ra (Garrison Fewell) 7:55
3. Thriftshopping (John Tchicai) 10:21
4. Undercurrent (Mikko Innanen) 13:23
5. Ramana Maharshi (John Tchicai) 5:49
Disc 2
1. On fait la taille (John Tchicai) 7:02
2. X-Ray Vision (Garrison Fewell) 7:52
3. Start to Finish (Charlie Kohlhase) 7:55
4. Lilanto del Indio (South American folk tune) 10:22
5. Consolation Cake (Charlie Kohlhase) 7:08
Recorded live at the Unitarian Meetinghouse in Amherst, MA on December 13, 2003.
John Tchicai – Tenor Saxophone, Bass Clarinet, Voice, Percussion
Charlie Kohlhase – Tenor, Alto & Baritone Saxophones
Garrison Fewell – Guitar, Chopsticks, Slide & Percussion
 
Лог создания рипа
 
Disc 1
Exact Audio Copy V1.1 from 23. June 2015
EAC extraction logfile from 17. July 2015, 16:52
John Tchicai, Charlie Kohlhase, Garrison Fewell / Good Night Songs (Disc 1)
Used drive : SlimtypeeNAU508 5 Adapter: 1 ID: 1
Read mode : Secure
Utilize accurate stream : Yes
Defeat audio cache : Yes
Make use of C2 pointers : No
Read offset correction : 6
Overread into Lead-In and Lead-Out : No
Fill up missing offset samples with silence : Yes
Delete leading and trailing silent blocks : No
Null samples used in CRC calculations : Yes
Used interface : Native Win32 interface for Win NT & 2000
Gap handling : Appended to previous track
Used output format : User Defined Encoder
Selected bitrate : 768 kBit/s
Quality : High
Add ID3 tag : No
Command line compressor : C:\Program Files (x86)\Exact Audio Copy\Flac\flac.exe
Additional command line options : -8 -V -T "ARTIST=%artist%" -T "TITLE=%title%" -T "ALBUM=%albumtitle%" -T "DATE=%year%" -T "TRACKNUMBER=%tracknr%" -T "TOTALTRACKS=%numtracks%" -T "GENRE=%genre%" -T "ALBUMARTIST=%albumartist%" -T "ALBUM ARTIST=%albumartist%" -T "COMMENT=EAC Secure Mode, Test & Copy, AccurateRip, FLAC -8" %source%
TOC of the extracted CD
Track | Start | Length | Start sector | End sector
---------------------------------------------------------
1 | 0:00.00 | 7:19.09 | 0 | 32933
2 | 7:19.09 | 7:55.37 | 32934 | 68595
3 | 15:14.46 | 10:21.30 | 68596 | 115200
4 | 25:36.01 | 13:23.33 | 115201 | 175458
5 | 38:59.34 | 5:49.09 | 175459 | 201642
Track 1
Filename C:\EAC rips\01 - Floating.wav
Pre-gap length 0:00:02.00
Peak level 80.1 %
Extraction speed 2.3 X
Track quality 100.0 %
Test CRC 0CBD6FED
Copy CRC 0CBD6FED
Track not present in AccurateRip database
Copy OK
Track 2
Filename C:\EAC rips\02 - The Queen of Ra.wav
Pre-gap length 0:00:02.00
Peak level 97.7 %
Extraction speed 2.7 X
Track quality 100.0 %
Test CRC B1E6AE6C
Copy CRC B1E6AE6C
Track not present in AccurateRip database
Copy OK
Track 3
Filename C:\EAC rips\03 - Thriftshopping.wav
Pre-gap length 0:00:02.00
Peak level 97.7 %
Extraction speed 2.5 X
Track quality 100.0 %
Test CRC 69FAEB1D
Copy CRC 69FAEB1D
Track not present in AccurateRip database
Copy OK
Track 4
Filename C:\EAC rips\04 - Undercurrent.wav
Pre-gap length 0:00:02.00
Peak level 97.7 %
Extraction speed 3.5 X
Track quality 99.9 %
Test CRC 011F7102
Copy CRC 011F7102
Track not present in AccurateRip database
Copy OK
Track 5
Filename C:\EAC rips\05 - Ramana Maharshi.wav
Pre-gap length 0:00:02.00
Peak level 80.7 %
Extraction speed 3.9 X
Track quality 100.0 %
Test CRC 7AC7AB66
Copy CRC 7AC7AB66
Track not present in AccurateRip database
Copy OK
None of the tracks are present in the AccurateRip database
No errors occurred
End of status report
---- CUETools DB Plugin V2.1.6
[CTDB TOCID: H0cGbziReaTq6.PlI1_H7ex0d4Q-] disk not present in database
Submit result: H0cGbziReaTq6.PlI1_H7ex0d4Q- has been uploaded
==== Log checksum 299660D8604178745D54F2BDFB48CF5D4000D2E38CD8F6F04371E9460875D149 ====
 
Disc 2
Exact Audio Copy V1.1 from 23. June 2015
EAC extraction logfile from 17. July 2015, 17:52
John Tchicai, Charlie Kohlhase, Garrison Fewell / Good Night Songs (Disc 2)
Used drive : SlimtypeeNAU508 5 Adapter: 1 ID: 1
Read mode : Secure
Utilize accurate stream : Yes
Defeat audio cache : Yes
Make use of C2 pointers : No
Read offset correction : 6
Overread into Lead-In and Lead-Out : No
Fill up missing offset samples with silence : Yes
Delete leading and trailing silent blocks : No
Null samples used in CRC calculations : Yes
Used interface : Native Win32 interface for Win NT & 2000
Gap handling : Appended to previous track
Used output format : User Defined Encoder
Selected bitrate : 768 kBit/s
Quality : High
Add ID3 tag : No
Command line compressor : C:\Program Files (x86)\Exact Audio Copy\Flac\flac.exe
Additional command line options : -8 -V -T "ARTIST=%artist%" -T "TITLE=%title%" -T "ALBUM=%albumtitle%" -T "DATE=%year%" -T "TRACKNUMBER=%tracknr%" -T "TOTALTRACKS=%numtracks%" -T "GENRE=%genre%" -T "ALBUMARTIST=%albumartist%" -T "ALBUM ARTIST=%albumartist%" -T "COMMENT=EAC Secure Mode, Test & Copy, AccurateRip, FLAC -8" %source%
TOC of the extracted CD
Track | Start | Length | Start sector | End sector
---------------------------------------------------------
1 | 0:00.00 | 7:01.43 | 0 | 31617
2 | 7:01.43 | 7:52.05 | 31618 | 67022
3 | 14:53.48 | 7:55.18 | 67023 | 102665
4 | 22:48.66 | 10:22.30 | 102666 | 149345
5 | 33:11.21 | 7:08.33 | 149346 | 181478
Track 1
Filename C:\EAC rips\01 - On fait la taille.wav
Pre-gap length 0:00:02.00
Peak level 97.7 %
Extraction speed 1.1 X
Track quality 100.0 %
Test CRC 54C40461
Copy CRC 54C40461
Track not present in AccurateRip database
Copy OK
Track 2
Filename C:\EAC rips\02 - X-Ray Vision.wav
Pre-gap length 0:00:02.00
Peak level 92.3 %
Extraction speed 1.2 X
Track quality 99.9 %
Test CRC 47347983
Copy CRC 47347983
Track not present in AccurateRip database
Copy OK
Track 3
Filename C:\EAC rips\03 - Start to Finish.wav
Pre-gap length 0:00:02.00
Peak level 97.7 %
Extraction speed 1.6 X
Track quality 100.0 %
Test CRC 8EAE9A08
Copy CRC 8EAE9A08
Track not present in AccurateRip database
Copy OK
Track 4
Filename C:\EAC rips\04 - Lilanto del Indio.wav
Pre-gap length 0:00:02.00
Peak level 97.7 %
Extraction speed 1.8 X
Track quality 100.0 %
Test CRC 8BA19E18
Copy CRC 8BA19E18
Track not present in AccurateRip database
Copy OK
Track 5
Filename C:\EAC rips\05 - Consolation Cake.wav
Pre-gap length 0:00:02.00
Peak level 97.7 %
Extraction speed 1.9 X
Track quality 100.0 %
Test CRC 3F4841C8
Copy CRC 3F4841C8
Track not present in AccurateRip database
Copy OK
None of the tracks are present in the AccurateRip database
No errors occurred
End of status report
---- CUETools DB Plugin V2.1.6
[CTDB TOCID: RrV7UeLJnXuj.3bsuHzdNsaudi8-] disk not present in database
Submit result: RrV7UeLJnXuj.3bsuHzdNsaudi8- has been uploaded
==== Log checksum 8ED3AA978543DC6850037761409AB118789801B4D89EC6A65DCFAD5E0A6A87CA ====
 
Содержание индексной карты (.CUE)
 
Disc 1
REM GENRE "Boxholder Records BXH 050/051"
REM DATE 2006
REM DISCID 360A8005
REM COMMENT "ExactAudioCopy v1.1"
PERFORMER "John Tchicai, Charlie Kohlhase, Garrison Fewell"
TITLE "Good Night Songs (Disc 1)"
FILE "01 - Floating.wav" WAVE
TRACK 01 AUDIO
TITLE "Floating"
PERFORMER "John Tchicai, Charlie Kohlhase, Garrison Fewell"
FLAGS DCP
INDEX 01 00:00:00
TRACK 02 AUDIO
TITLE "The Queen of Ra"
PERFORMER "John Tchicai, Charlie Kohlhase, Garrison Fewell"
FLAGS DCP
INDEX 00 07:17:09
FILE "02 - The Queen of Ra.wav" WAVE
INDEX 01 00:00:00
TRACK 03 AUDIO
TITLE "Thriftshopping"
PERFORMER "John Tchicai, Charlie Kohlhase, Garrison Fewell"
FLAGS DCP
INDEX 00 07:53:37
FILE "03 - Thriftshopping.wav" WAVE
INDEX 01 00:00:00
TRACK 04 AUDIO
TITLE "Undercurrent"
PERFORMER "John Tchicai, Charlie Kohlhase, Garrison Fewell"
FLAGS DCP
INDEX 00 10:19:30
FILE "04 - Undercurrent.wav" WAVE
INDEX 01 00:00:00
TRACK 05 AUDIO
TITLE "Ramana Maharshi"
PERFORMER "John Tchicai, Charlie Kohlhase, Garrison Fewell"
FLAGS DCP
INDEX 00 13:21:33
FILE "05 - Ramana Maharshi.wav" WAVE
INDEX 01 00:00:00
 
Disc 2
REM GENRE "Boxholder Records BXH 050/051"
REM DATE 2006
REM DISCID 42097305
REM COMMENT "ExactAudioCopy v1.1"
PERFORMER "John Tchicai, Charlie Kohlhase, Garrison Fewell"
TITLE "Good Night Songs (Disc 2)"
FILE "01 - On fait la taille.wav" WAVE
TRACK 01 AUDIO
TITLE "On fait la taille"
PERFORMER "John Tchicai, Charlie Kohlhase, Garrison Fewell"
FLAGS DCP
INDEX 01 00:00:00
TRACK 02 AUDIO
TITLE "X-Ray Vision"
PERFORMER "John Tchicai, Charlie Kohlhase, Garrison Fewell"
FLAGS DCP
INDEX 00 06:59:43
FILE "02 - X-Ray Vision.wav" WAVE
INDEX 01 00:00:00
TRACK 03 AUDIO
TITLE "Start to Finish"
PERFORMER "John Tchicai, Charlie Kohlhase, Garrison Fewell"
FLAGS DCP
INDEX 00 07:50:05
FILE "03 - Start to Finish.wav" WAVE
INDEX 01 00:00:00
TRACK 04 AUDIO
TITLE "Lilanto del Indio"
PERFORMER "John Tchicai, Charlie Kohlhase, Garrison Fewell"
FLAGS DCP
INDEX 00 07:53:18
FILE "04 - Lilanto del Indio.wav" WAVE
INDEX 01 00:00:00
TRACK 05 AUDIO
TITLE "Consolation Cake"
PERFORMER "John Tchicai, Charlie Kohlhase, Garrison Fewell"
FLAGS DCP
INDEX 00 10:20:30
FILE "05 - Consolation Cake.wav" WAVE
INDEX 01 00:00:00
По всем вопросам пишите личное сообщение пользователю M0p94ok.
14:36
168
Нет комментариев. Ваш будет первым!