Поиск

(Avant-Garde Jazz, Free Jazz, Hard Bop) [CD] John Coltrane - Spiritual Trane - 1999, FLAC (tracks+.cue), lossless

(Avant-Garde Jazz, Free Jazz, Hard Bop) [CD] John Coltrane - Spiritual Trane - 1999, FLAC (tracks+.cue), lossless
Треклист:
John Coltrane - Spiritual Trane
Жанр: Avant-Garde Jazz, Free Jazz, Hard Bop
Носитель: CD
Страна-производитель диска (релиза): Japan
Год издания: 1999
Издатель (лейбл): Impulse!/MCA/Universal Victor Japan
Номер по каталогу: MVCJ-19173
Аудиокодек: FLAC (*.flac)
Тип рипа: tracks+.cue
Битрейт аудио: lossless
Продолжительность: 55:18
Источник (релизер): ruskaval
Наличие сканов в содержимом раздачи: да
Треклист:
01. Tunji (Toon-gee) (6:35)
02. Wise One (9:06)
03. A Love Supreme Part II: Resolution (7:28)
04. Spiritual (13:50)
05. Song Of Praise (9:52)
06. Offering (8:28)
 
 
Лог создания рипа
Exact Audio Copy V1.0 beta 3 from 29. August 2011
EAC extraction logfile from 14. July 2014, 15:33
John Coltrane / Spiritual Trane
Used drive : hp DVD A DH16ABSH Adapter: 0 ID: 0
Read mode : Secure
Utilize accurate stream : Yes
Defeat audio cache : Yes
Make use of C2 pointers : No
Read offset correction : 6
Overread into Lead-In and Lead-Out : No
Fill up missing offset samples with silence : Yes
Delete leading and trailing silent blocks : No
Null samples used in CRC calculations : Yes
Used interface : Native Win32 interface for Win NT & 2000
Gap handling : Appended to previous track
Used output format : User Defined Encoder
Selected bitrate : 896 kBit/s
Quality : High
Add ID3 tag : No
Command line compressor : C:\Program Files (x86)\Exact Audio Copy\Flac\flac.exe
Additional command line options : -8 -V -T "ARTIST=%artist%" -T "TITLE=%title%" -T "ALBUM=%albumtitle%" -T "DATE=%year%" -T "TRACKNUMBER=%tracknr%" -T "TOTALTRACKS=%numtracks%" -T "GENRE=%genre%" -T "ALBUMARTIST=%albumartist%" -T "ALBUM ARTIST=%albumartist%" -T "COMMENT=EAC Secure Mode, Test & Copy, AccurateRip, FLAC -8" %source%
TOC of the extracted CD
Track | Start | Length | Start sector | End sector
---------------------------------------------------------
1 | 0:00.37 | 6:34.70 | 37 | 29656
2 | 6:35.32 | 9:05.60 | 29657 | 70591
3 | 15:41.17 | 7:28.10 | 70592 | 104201
4 | 23:09.27 | 13:49.38 | 104202 | 166414
5 | 36:58.65 | 9:51.62 | 166415 | 210801
6 | 46:50.52 | 8:28.20 | 210802 | 248921
Track 1
Filename C:\EAC\John Coltrane - Spiritual Trane (1999) [FLAC] {Impulse! MVCJ-19173, Japan}\01 - Tunji (Toon-gee).wav
Pre-gap length 0:00:02.37
Peak level 98.8 %
Extraction speed 3.8 X
Track quality 100.0 %
Test CRC 57DB7402
Copy CRC 57DB7402
Track not present in AccurateRip database
Copy OK
Track 2
Filename C:\EAC\John Coltrane - Spiritual Trane (1999) [FLAC] {Impulse! MVCJ-19173, Japan}\02 - Wise One.wav
Pre-gap length 0:00:02.34
Peak level 100.0 %
Extraction speed 4.1 X
Track quality 99.9 %
Test CRC 4362D64C
Copy CRC 4362D64C
Track not present in AccurateRip database
Copy OK
Track 3
Filename C:\EAC\John Coltrane - Spiritual Trane (1999) [FLAC] {Impulse! MVCJ-19173, Japan}\03 - A Love Supreme Part II- Resolution.wav
Pre-gap length 0:00:02.31
Peak level 100.0 %
Extraction speed 5.2 X
Track quality 100.0 %
Test CRC 90D4C41F
Copy CRC 90D4C41F
Track not present in AccurateRip database
Copy OK
Track 4
Filename C:\EAC\John Coltrane - Spiritual Trane (1999) [FLAC] {Impulse! MVCJ-19173, Japan}\04 - Spiritual.wav
Pre-gap length 0:00:02.34
Peak level 97.7 %
Extraction speed 6.1 X
Track quality 100.0 %
Test CRC 74593514
Copy CRC 74593514
Track not present in AccurateRip database
Copy OK
Track 5
Filename C:\EAC\John Coltrane - Spiritual Trane (1999) [FLAC] {Impulse! MVCJ-19173, Japan}\05 - Song of Praise.wav
Pre-gap length 0:00:02.37
Peak level 99.0 %
Extraction speed 6.7 X
Track quality 100.0 %
Test CRC A89EE2F5
Copy CRC A89EE2F5
Track not present in AccurateRip database
Copy OK
Track 6
Filename C:\EAC\John Coltrane - Spiritual Trane (1999) [FLAC] {Impulse! MVCJ-19173, Japan}\06 - Offering.wav
Pre-gap length 0:00:02.31
Peak level 100.0 %
Extraction speed 6.4 X
Track quality 99.9 %
Test CRC A306F654
Copy CRC A306F654
Track not present in AccurateRip database
Copy OK
None of the tracks are present in the AccurateRip database
No errors occurred
End of status report
==== Log checksum D7D872D812F96925FD37356EBFEF04644E07B6E378C496A33B50846E67FC1A6C ====
 
Содержание индексной карты (.CUE)
REM GENRE Jazz
REM DATE 1999
REM DISCID 460CF606
REM COMMENT "ExactAudioCopy v1.0b3"
PERFORMER "John Coltrane"
TITLE "Spiritual Trane"
FILE "01 - Tunji (Toon-gee).wav" WAVE
TRACK 01 AUDIO
TITLE "Tunji (Toon-gee)"
PERFORMER "John Coltrane"
PREGAP 00:00:37
INDEX 01 00:00:00
TRACK 02 AUDIO
TITLE "Wise One"
PERFORMER "John Coltrane"
INDEX 00 06:32:36
FILE "02 - Wise One.wav" WAVE
INDEX 01 00:00:00
TRACK 03 AUDIO
TITLE "A Love Supreme Part II: Resolution"
PERFORMER "John Coltrane"
INDEX 00 09:03:29
FILE "03 - A Love Supreme Part II- Resolution.wav" WAVE
INDEX 01 00:00:00
TRACK 04 AUDIO
TITLE "Spiritual"
PERFORMER "John Coltrane"
INDEX 00 07:25:51
FILE "04 - Spiritual.wav" WAVE
INDEX 01 00:00:00
TRACK 05 AUDIO
TITLE "Song Of Praise"
PERFORMER "John Coltrane"
INDEX 00 13:47:01
FILE "05 - Song Of Praise.wav" WAVE
INDEX 01 00:00:00
TRACK 06 AUDIO
TITLE "Offering"
PERFORMER "John Coltrane"
INDEX 00 09:49:31
FILE "06 - Offering.wav" WAVE
INDEX 01 00:00:00
По всем вопросам пишите личное сообщение пользователю M0p94ok.
13:29
179
Нет комментариев. Ваш будет первым!