Поиск

(Avant-Garde Jazz, Free Improvisation, Experimental) [CD] Green Room (David Baird, David Garrett, Chick Lyall) - Live Trajectories - 1996, FLAC (tracks+.cue), lossless

(Avant-Garde Jazz, Free Improvisation, Experimental) [CD] Green Room (David Baird, David Garrett, Chick Lyall) - Live Trajectories - 1996, FLAC (tracks+.cue), lossless
Треклист:
Green Room / Live Trajectories
Жанр: Avant-Garde Jazz, Free Improvisation, Experimental
Носитель: CD
Страна-производитель диска (релиза): UK
Год издания: 1996
Издатель (лейбл): Leo Records Laboratory
Номер по каталогу: Leo Lab CD 025
Страна исполнителя (группы): Scotland
Аудиокодек: FLAC (*.flac)
Тип рипа: tracks+.cue
Битрейт аудио: lossless
Продолжительность: 1:11:17
Источник (релизер): gssmg7
Наличие сканов в содержимом раздачи: да
Треклист:
1. Trajectories (9:37)
2. Hieroglyph (7:50)
3. Biomorph (9:15)
4. Divertimento (9:47)
5. Flux II (6:12)
6. Arabesque (8:22)
7. Amazon (8:36)
8. Endgame (11:30)
http://www.leorecords.com/?id=LeoLab_025&m=select
 
Лог создания рипа
Exact Audio Copy V1.0 beta 2 from 29. April 2011
EAC extraction logfile from 12. July 2015, 0:37
Green Room / Live Trajectories
Used drive : Optiarc DVD RW AD-5280S Adapter: 1 ID: 1
Read mode : Secure
Utilize accurate stream : Yes
Defeat audio cache : Yes
Make use of C2 pointers : No
Read offset correction : 48
Overread into Lead-In and Lead-Out : No
Fill up missing offset samples with silence : Yes
Delete leading and trailing silent blocks : No
Null samples used in CRC calculations : Yes
Used interface : Installed external ASPI interface
Gap handling : Appended to previous track
Used output format : User Defined Encoder
Selected bitrate : 128 kBit/s
Quality : High
Add ID3 tag : No
Command line compressor : C:\Program Files\FLAC\flac.exe
Additional command line options : -V -8 -T "Genre=%genre%" -T "Artist=%artist%" -T "Title=%title%" -T "Album=%albumtitle%" -T "Date=%year%" -T "Tracknumber=%tracknr%" -T "Comment=%comment%" %source%
TOC of the extracted CD
Track | Start | Length | Start sector | End sector
---------------------------------------------------------
1 | 0:00.00 | 9:34.57 | 0 | 43106
2 | 9:34.57 | 7:55.53 | 43107 | 78784
3 | 17:30.35 | 9:23.47 | 78785 | 121056
4 | 26:54.07 | 9:54.55 | 121057 | 165661
5 | 36:48.62 | 6:08.40 | 165662 | 193301
6 | 42:57.27 | 7:57.33 | 193302 | 229109
7 | 50:54.60 | 8:35.57 | 229110 | 267791
8 | 59:30.42 | 11:47.23 | 267792 | 320839
Track 1
Filename C:\Green Room (2006) - Live Trajectories\01 - Trajectories.wav
Pre-gap length 0:00:02.00
Peak level 90.3 %
Extraction speed 3.0 X
Track quality 100.0 %
Test CRC F6E4923B
Copy CRC F6E4923B
Track not present in AccurateRip database
Copy OK
Track 2
Filename C:\Green Room (2006) - Live Trajectories\02 - Hieroglyph.wav
Pre-gap length 0:00:03.52
Peak level 40.3 %
Extraction speed 3.5 X
Track quality 100.0 %
Test CRC 83C78A02
Copy CRC 83C78A02
Track not present in AccurateRip database
Copy OK
Track 3
Filename C:\Green Room (2006) - Live Trajectories\03 - Biomorph.wav
Pre-gap length 0:00:00.68
Peak level 91.5 %
Extraction speed 4.0 X
Track quality 100.0 %
Test CRC B2A76509
Copy CRC B2A76509
Track not present in AccurateRip database
Copy OK
Track 4
Filename C:\Green Room (2006) - Live Trajectories\04 - Divertimento.wav
Pre-gap length 0:00:04.45
Peak level 55.9 %
Extraction speed 4.4 X
Track quality 100.0 %
Test CRC 50DBBF89
Copy CRC 50DBBF89
Track not present in AccurateRip database
Copy OK
Track 5
Filename C:\Green Room (2006) - Live Trajectories\05 - Flux II.wav
Pre-gap length 0:00:06.37
Peak level 100.0 %
Extraction speed 4.2 X
Track quality 99.9 %
Test CRC E59198DF
Copy CRC E59198DF
Track not present in AccurateRip database
Copy OK
Track 6
Filename C:\Green Room (2006) - Live Trajectories\06 - Arabesque.wav
Pre-gap length 0:00:00.22
Peak level 84.9 %
Extraction speed 4.7 X
Track quality 99.9 %
Test CRC 198C3ADA
Copy CRC 198C3ADA
Track not present in AccurateRip database
Copy OK
Track 7
Filename C:\Green Room (2006) - Live Trajectories\07 - Amazon.wav
Pre-gap length 0:00:02.63
Peak level 31.9 %
Extraction speed 5.3 X
Track quality 100.0 %
Test CRC 973E9C6C
Copy CRC 973E9C6C
Track not present in AccurateRip database
Copy OK
Track 8
Filename C:\Green Room (2006) - Live Trajectories\08 - Endgame.wav
Pre-gap length 0:00:00.05
Peak level 58.6 %
Extraction speed 5.8 X
Track quality 100.0 %
Test CRC 3615D348
Copy CRC 3615D348
Track not present in AccurateRip database
Copy OK
None of the tracks are present in the AccurateRip database
No errors occurred
End of status report
==== Log checksum DAFB6C74406A8FCCDB33F19FF1BCFDF3C834BA6FF55D81A22FCDC4CD5C400055 ====
 
Содержание индексной карты (.CUE)
REM GENRE Jazz
REM DATE 1996
REM DISCID 6510B508
REM COMMENT "ExactAudioCopy v1.0b2"
CATALOG 0000000000000
PERFORMER "Green Room"
TITLE "Live Trajectories"
FILE "01 - Trajectories.wav" WAVE
TRACK 01 AUDIO
TITLE "Trajectories"
PERFORMER "Green Room"
INDEX 01 00:00:00
TRACK 02 AUDIO
TITLE "Hieroglyph"
PERFORMER "Green Room"
INDEX 00 09:31:05
FILE "02 - Hieroglyph.wav" WAVE
INDEX 01 00:00:00
TRACK 03 AUDIO
TITLE "Biomorph"
PERFORMER "Green Room"
INDEX 00 07:54:60
FILE "03 - Biomorph.wav" WAVE
INDEX 01 00:00:00
TRACK 04 AUDIO
TITLE "Divertimento"
PERFORMER "Green Room"
INDEX 00 09:19:02
FILE "04 - Divertimento.wav" WAVE
INDEX 01 00:00:00
TRACK 05 AUDIO
TITLE "Flux II"
PERFORMER "Green Room"
INDEX 00 09:48:18
FILE "05 - Flux II.wav" WAVE
INDEX 01 00:00:00
TRACK 06 AUDIO
TITLE "Arabesque"
PERFORMER "Green Room"
INDEX 00 06:08:18
FILE "06 - Arabesque.wav" WAVE
INDEX 01 00:00:00
TRACK 07 AUDIO
TITLE "Amazon"
PERFORMER "Green Room"
INDEX 00 07:54:45
FILE "07 - Amazon.wav" WAVE
INDEX 01 00:00:00
TRACK 08 AUDIO
TITLE "Endgame"
PERFORMER "Green Room"
INDEX 00 08:35:52
FILE "08 - Endgame.wav" WAVE
INDEX 01 00:00:00
 
Доп. информация
Recorded live at the Traverse Theatre, Edinburgh, 5.02.1996
 
Состав
David Baird - chapman stick, el cello, tapes, voices, rotalodien
David Garrett - prepared piano frame, prepared dulcimer, acoustic percussion
Chick Lyall - steinway grand piano, keyboards and sound synthesis, bamboo flute
По всем вопросам пишите личное сообщение пользователю M0p94ok.
14:28
199
Нет комментариев. Ваш будет первым!