Вы используете незарегистрированную версию компонента "Вкладки"!

Поиск

(Free Jazz, Plainisphare) [CD] BBFC (Jean-Francois Bovard - Daniel Bourquin - Leon Francioli - Olivier Clerc) - Enregistrements 1982-1987 (3CDs) - 1991, FLAC (tracks+.cue), lossless

(Free Jazz, Plainisphare) [CD] BBFC (Jean-Francois Bovard - Daniel Bourquin - Leon Francioli - Olivier Clerc) - Enregistrements 1982-1987 (3CDs) - 1991, FLAC (tracks+.cue), lossless
Треклист:
BBFC / Enregistrements 1982-1987 (3CDs)
Жанр: Free Jazz, Plainisphare
Носитель: CD
Страна-производитель диска: Switzerland
Год издания: 1991
Издатель (лейбл): Plainisphare
Номер по каталогу: PL 1267-65/6/7 CD
Аудиокодек: FLAC (*.flac)
Тип рипа: tracks+.cue
Битрейт аудио: lossless
Продолжительность: 1:08:16 + 1:17:05 + 1:16:47
Источник (релизер): я
Наличие сканов в содержимом раздачи: да
 
Треклист
Disc 1
Cherchez l’erreur (1982)
01. Beb (Bovard, Bourquin, Francioli, d’après un thème de B. Guerin) 4:40
02. Tagada (Francioli) 5:58
03. Oben ohne (Bourquin) 5:29
04. Albatros (Francioli) 3:13
05. Nocturne (Bovard) 6:07
06. Unten ohne (Bourquin) 4:07
07. Cherchez l’erreur (Francioli) 8:46
Quelle mémoire ! (1983)
08. Mèche courte (Bovard, Bourquin, Francioli) 4:09
09. Paparanoïa (Francioli) 1:43
10. Quelle mémoire ! (Bovard, Bourquin, Francioli) 9:14
11. En attendant Mario (Francioli) 8:56
12. Ragtime (Francioli) 0:46
13. Le Triste (Francioli) 5:09
« Cherchez l’erreur » enregistré à Lausanne les 2, 3 et 4 août 1982, « Quelle mémoire ! » enregistré à Lausanne les 28, 29 et 30 septembre 1983.
Disc 2
Musique (2LPs, 1984)
01. Aimez-vous les uns 2:59
02. Bobocatepetl 12:23
03. Dukebox 7:27
04. Ltepetacobob 2:14
05. Et les autres ? 2:02
06. Tu m’as dit d’aimer 7:59
07. Dracurella 11:22
08. À l’est des dents 4:55
09. Votre compte est bon 4:27
10. Mozart est là 9:40
11. Moi aussi 5:32
12. West Side Sorry 0:39
13. Fin de partouze 5:27
Compositions de Léon Francioli et Jean-François Bovard.
Enregistré au Théâtre municipal de Lausanne le 21 juillet 1984.
Disc 3
BBFC Live (1984)
01. Tout se complique (Bovard, Bourquin, Francioli) 7:35
02. C’est bien, oh ! c’est bien (Bovard, Bourquin, Francioli) 13:32
03. Au hasard (Bovard, Bourquin, Francioli) 7:22
04. Éléphant d’Europe (Bovard, Bourquin, Francioli) 6:59
Papa (1987)
05. Mèche courte (Bovard, Bourquin, Francioli) 10:29
06. En attendant Mario (Francioli) 6:04
07. Tout se complique (Bovard, Bourquin, Francioli) 9:18
08. Soufflé sentimental (Bourquin) 4:58
09. Le Marché de Bogota (Francioli) 10:32
« BBFC Live » enregistré au théâtre du Lapin Vert à Lausanne les 5 et 6 septembre 1984. « Papa » enregistré au Montreux Jazz Festival le 18 juillet 1987.
Jean-François Bovard – trombone
Daniel Bourquin – anches
Léon Francioli – contrebasse, piano
Olivier Clerc – percussions
sur « Musique »:
Didier Hatt – trompette
Mario Alberti – trompette
Alain Bertholet – trompette
André Jaume – saxophone
Daniel Margot – hautbois
Walter Heyna – cor
Runo Ericksson – trombone basse
Jacques Ditisheim – percussions
Raoul Esmerode – percussions
 
Лог создания рипа
 
Disc 1
Exact Audio Copy V1.0 beta 3 from 29. August 2011
EAC extraction logfile from 16. December 2013, 13:47
BBFC / Enregistrements 1982-1987 (Cherchez l'erreur / Quelle mémoire !)
Used drive : SlimtypeeNAU508 5 Adapter: 1 ID: 0
Read mode : Secure
Utilize accurate stream : Yes
Defeat audio cache : Yes
Make use of C2 pointers : No
Read offset correction : 6
Overread into Lead-In and Lead-Out : No
Fill up missing offset samples with silence : Yes
Delete leading and trailing silent blocks : No
Null samples used in CRC calculations : Yes
Used interface : Native Win32 interface for Win NT & 2000
Gap handling : Appended to previous track
Used output format : User Defined Encoder
Selected bitrate : 768 kBit/s
Quality : High
Add ID3 tag : No
Command line compressor : C:\Program Files (x86)\Exact Audio Copy\Flac\flac.exe
Additional command line options : -8 -V -T "ARTIST=%artist%" -T "TITLE=%title%" -T "ALBUM=%albumtitle%" -T "DATE=%year%" -T "TRACKNUMBER=%tracknr%" -T "GENRE=%genre%" -T "PERFORMER=%albuminterpret%" -T "COMPOSER=%composer%" %haslyrics%--tag-from-file=LYRICS="%lyricsfile%"%haslyrics% -T "ALBUMARTIST=%albumartist%" -T "DISCNUMBER=%cdnumber%" -T "TOTALDISCS=%totalcds%" -T "TOTALTRACKS=%numtracks%" -T "COMMENT=%comment%" %source% -o %dest%
TOC of the extracted CD
Track | Start | Length | Start sector | End sector
---------------------------------------------------------
1 | 0:00.00 | 4:39.62 | 0 | 20986
2 | 4:39.62 | 5:58.33 | 20987 | 47869
3 | 10:38.20 | 5:28.67 | 47870 | 72536
4 | 16:07.12 | 3:12.38 | 72537 | 86974
5 | 19:19.50 | 6:07.12 | 86975 | 114511
6 | 25:26.62 | 4:06.55 | 114512 | 133016
7 | 29:33.42 | 8:46.35 | 133017 | 172501
8 | 38:20.02 | 4:08.45 | 172502 | 191146
9 | 42:28.47 | 1:42.40 | 191147 | 198836
10 | 44:11.12 | 9:14.13 | 198837 | 240399
11 | 53:25.25 | 8:56.17 | 240400 | 280616
12 | 62:21.42 | 0:46.08 | 280617 | 284074
13 | 63:07.50 | 5:08.50 | 284075 | 307224
Track 1
Filename C:\EAC rips\01 - Beb.wav
Pre-gap length 0:00:02.00
Peak level 89.3 %
Extraction speed 2.1 X
Track quality 99.9 %
Test CRC D8C48C35
Copy CRC D8C48C35
Accurately ripped (confidence 1) [E86049A0] (AR v2)
Copy OK
Track 2
Filename C:\EAC rips\02 - Tagada.wav
Pre-gap length 0:00:05.22
Peak level 92.3 %
Extraction speed 2.9 X
Track quality 100.0 %
Test CRC 51F92C10
Copy CRC 51F92C10
Accurately ripped (confidence 1) [D262BFE4] (AR v2)
Copy OK
Track 3
Filename C:\EAC rips\03 - Oben ohne.wav
Pre-gap length 0:00:05.55
Peak level 90.3 %
Extraction speed 3.1 X
Track quality 100.0 %
Test CRC 65193DB8
Copy CRC 65193DB8
Accurately ripped (confidence 1) [1A52FF49] (AR v2)
Copy OK
Track 4
Filename C:\EAC rips\04 - Albatros.wav
Pre-gap length 0:00:05.25
Peak level 48.4 %
Extraction speed 3.1 X
Track quality 100.0 %
Test CRC 54A878F1
Copy CRC 54A878F1
Accurately ripped (confidence 1) [12BC7240] (AR v2)
Copy OK
Track 5
Filename C:\EAC rips\05 - Nocturne.wav
Pre-gap length 0:00:05.15
Peak level 89.1 %
Extraction speed 3.2 X
Track quality 99.9 %
Test CRC DFF8AA06
Copy CRC DFF8AA06
Accurately ripped (confidence 1) [3E5597C1] (AR v2)
Copy OK
Track 6
Filename C:\EAC rips\06 - Unten ohne.wav
Pre-gap length 0:00:05.32
Peak level 76.1 %
Extraction speed 3.7 X
Track quality 100.0 %
Test CRC DF3BBB13
Copy CRC DF3BBB13
Accurately ripped (confidence 1) [6373BB7C] (AR v2)
Copy OK
Track 7
Filename C:\EAC rips\07 - Cherchez l'erreur.wav
Pre-gap length 0:00:05.10
Peak level 98.4 %
Extraction speed 4.2 X
Track quality 100.0 %
Test CRC 2EC67132
Copy CRC 2EC67132
Accurately ripped (confidence 1) [793B611B] (AR v2)
Copy OK
Track 8
Filename C:\EAC rips\08 - Mèche courte.wav
Pre-gap length 0:00:04.42
Peak level 80.9 %
Extraction speed 4.1 X
Track quality 100.0 %
Test CRC 2BCFF133
Copy CRC 2BCFF133
Accurately ripped (confidence 1) [ED5CA8FA] (AR v2)
Copy OK
Track 9
Filename C:\EAC rips\09 - Paparanoïa.wav
Pre-gap length 0:00:04.62
Peak level 32.1 %
Extraction speed 3.4 X
Track quality 100.0 %
Test CRC 80B27D5B
Copy CRC 80B27D5B
Accurately ripped (confidence 1) [55B60B78] (AR v2)
Copy OK
Track 10
Filename C:\EAC rips\10 - Quelle mémoire !.wav
Pre-gap length 0:00:03.67
Peak level 96.8 %
Extraction speed 4.6 X
Track quality 100.0 %
Test CRC 1A672F68
Copy CRC 1A672F68
Accurately ripped (confidence 1) [3CA26AFC] (AR v2)
Copy OK
Track 11
Filename C:\EAC rips\11 - En attendant Mario.wav
Pre-gap length 0:00:07.73
Peak level 83.0 %
Extraction speed 5.1 X
Track quality 100.0 %
Test CRC CBC627DC
Copy CRC CBC627DC
Accurately ripped (confidence 1) [C46C1C66] (AR v2)
Copy OK
Track 12
Filename C:\EAC rips\12 - Ragtime.wav
Pre-gap length 0:00:04.50
Peak level 98.6 %
Extraction speed 3.0 X
Track quality 100.0 %
Test CRC C3936205
Copy CRC C3936205
Accurately ripped (confidence 1) [27141537] (AR v2)
Copy OK
Track 13
Filename C:\EAC rips\13 - Le Triste.wav
Pre-gap length 0:00:04.73
Peak level 72.1 %
Extraction speed 5.0 X
Track quality 100.0 %
Test CRC 09F7540D
Copy CRC 09F7540D
Accurately ripped (confidence 1) [4050F142] (AR v2)
Copy OK
All tracks accurately ripped
No errors occurred
End of status report
---- CUETools DB Plugin V2.1.4
[CTDB TOCID: jGTbAVG03zE3V8vggLm1MMkruAo-] found
Submit result: already submitted
Track | CTDB Status
1 | (1/1) Accurately ripped
2 | (1/1) Accurately ripped
3 | (1/1) Accurately ripped
4 | (1/1) Accurately ripped
5 | (1/1) Accurately ripped
6 | (1/1) Accurately ripped
7 | (1/1) Accurately ripped
8 | (1/1) Accurately ripped
9 | (1/1) Accurately ripped
10 | (1/1) Accurately ripped
11 | (1/1) Accurately ripped
12 | (1/1) Accurately ripped
13 | (1/1) Accurately ripped
==== Log checksum D64B9C154AC061274B015EA60739E1D427A4D1733C8A9FC02D5A082FE317E46B ====
 
Disc 2
Exact Audio Copy V1.0 beta 3 from 29. August 2011
EAC extraction logfile from 16. December 2013, 14:36
BBFC / Enregistrements 1982-1987 (Musique)
Used drive : SlimtypeeNAU508 5 Adapter: 1 ID: 0
Read mode : Secure
Utilize accurate stream : Yes
Defeat audio cache : Yes
Make use of C2 pointers : No
Read offset correction : 6
Overread into Lead-In and Lead-Out : No
Fill up missing offset samples with silence : Yes
Delete leading and trailing silent blocks : No
Null samples used in CRC calculations : Yes
Used interface : Native Win32 interface for Win NT & 2000
Gap handling : Appended to previous track
Used output format : User Defined Encoder
Selected bitrate : 768 kBit/s
Quality : High
Add ID3 tag : No
Command line compressor : C:\Program Files (x86)\Exact Audio Copy\Flac\flac.exe
Additional command line options : -8 -V -T "ARTIST=%artist%" -T "TITLE=%title%" -T "ALBUM=%albumtitle%" -T "DATE=%year%" -T "TRACKNUMBER=%tracknr%" -T "GENRE=%genre%" -T "PERFORMER=%albuminterpret%" -T "COMPOSER=%composer%" %haslyrics%--tag-from-file=LYRICS="%lyricsfile%"%haslyrics% -T "ALBUMARTIST=%albumartist%" -T "DISCNUMBER=%cdnumber%" -T "TOTALDISCS=%totalcds%" -T "TOTALTRACKS=%numtracks%" -T "COMMENT=%comment%" %source% -o %dest%
TOC of the extracted CD
Track | Start | Length | Start sector | End sector
---------------------------------------------------------
1 | 0:00.00 | 2:59.20 | 0 | 13444
2 | 2:59.20 | 12:23.22 | 13445 | 69191
3 | 15:22.42 | 7:26.53 | 69192 | 102694
4 | 22:49.20 | 2:13.55 | 102695 | 112724
5 | 25:03.00 | 2:01.62 | 112725 | 121861
6 | 27:04.62 | 7:59.08 | 121862 | 157794
7 | 35:03.70 | 11:21.67 | 157795 | 208936
8 | 46:25.62 | 4:54.50 | 208937 | 231036
9 | 51:20.37 | 4:27.25 | 231037 | 251086
10 | 55:47.62 | 9:40.33 | 251087 | 294619
11 | 65:28.20 | 5:31.47 | 294620 | 319491
12 | 70:59.67 | 0:38.38 | 319492 | 322379
13 | 71:38.30 | 5:26.57 | 322380 | 346886
Track 1
Filename C:\EAC rips\01 - Aimez-vous les uns.wav
Pre-gap length 0:00:02.00
Peak level 85.2 %
Extraction speed 1.8 X
Track quality 99.9 %
Test CRC AC8E7A98
Copy CRC AC8E7A98
Accurately ripped (confidence 1) [CB34C547] (AR v2)
Copy OK
Track 2
Filename C:\EAC rips\02 - Bobocatepetl.wav
Peak level 82.1 %
Extraction speed 3.1 X
Track quality 100.0 %
Test CRC F9BDEE17
Copy CRC F9BDEE17
Accurately ripped (confidence 1) [1E0B56E6] (AR v2)
Copy OK
Track 3
Filename C:\EAC rips\03 - Dukebox.wav
Peak level 80.9 %
Extraction speed 3.6 X
Track quality 100.0 %
Test CRC 6E85E20C
Copy CRC 6E85E20C
Accurately ripped (confidence 1) [35CDB869] (AR v2)
Copy OK
Track 4
Filename C:\EAC rips\04 - Ltepetacobob.wav
Peak level 95.6 %
Extraction speed 3.1 X
Track quality 100.0 %
Test CRC AEC8CA35
Copy CRC AEC8CA35
Accurately ripped (confidence 1) [E1246245] (AR v2)
Copy OK
Track 5
Filename C:\EAC rips\05 - Et les autres _.wav
Peak level 96.2 %
Extraction speed 2.3 X
Track quality 99.9 %
Test CRC 14DCC2E0
Copy CRC 14DCC2E0
Accurately ripped (confidence 1) [135F931A] (AR v2)
Copy OK
Track 6
Filename C:\EAC rips\06 - Tu m'as dit d'aimer.wav
Peak level 80.6 %
Extraction speed 3.7 X
Track quality 99.9 %
Test CRC 076CB9E4
Copy CRC 076CB9E4
Accurately ripped (confidence 1) [6E777E92] (AR v2)
Copy OK
Track 7
Filename C:\EAC rips\07 - Dracurella.wav
Peak level 55.2 %
Extraction speed 4.2 X
Track quality 99.9 %
Test CRC 009FA423
Copy CRC 009FA423
Accurately ripped (confidence 1) [0AB4C83C] (AR v2)
Copy OK
Track 8
Filename C:\EAC rips\08 - À l'est des dents.wav
Peak level 71.8 %
Extraction speed 4.5 X
Track quality 100.0 %
Test CRC 96D2D7AB
Copy CRC 96D2D7AB
Accurately ripped (confidence 1) [C2AEBD92] (AR v2)
Copy OK
Track 9
Filename C:\EAC rips\09 - Votre compte est bon.wav
Peak level 60.6 %
Extraction speed 4.6 X
Track quality 100.0 %
Test CRC 9E65666F
Copy CRC 9E65666F
Accurately ripped (confidence 1) [6F0E3815] (AR v2)
Copy OK
Track 10
Filename C:\EAC rips\10 - Mozart est là.wav
Peak level 86.5 %
Extraction speed 5.2 X
Track quality 100.0 %
Test CRC 67CB1A18
Copy CRC 67CB1A18
Accurately ripped (confidence 1) [7D902CFD] (AR v2)
Copy OK
Track 11
Filename C:\EAC rips\11 - Moi aussi.wav
Peak level 55.3 %
Extraction speed 5.2 X
Track quality 100.0 %
Test CRC A34B9072
Copy CRC A34B9072
Accurately ripped (confidence 1) [E29FA37F] (AR v2)
Copy OK
Track 12
Filename C:\EAC rips\12 - West Side Sorry.wav
Peak level 37.2 %
Extraction speed 1.5 X
Track quality 99.7 %
Test CRC 5E99D783
Copy CRC 5E99D783
Cannot be verified as accurate (confidence 1) [7A5D00E8], AccurateRip returned [F9138A6B] (AR v2)
Copy OK
Track 13
Filename C:\EAC rips\13 - Fin de partouze.wav
Peak level 84.0 %
Extraction speed 5.1 X
Track quality 100.0 %
Test CRC FB334EB0
Copy CRC FB334EB0
Cannot be verified as accurate (confidence 1) [95B5E888], AccurateRip returned [91CB575A] (AR v2)
Copy OK
11 track(s) accurately ripped
2 track(s) could not be verified as accurate
Some tracks could not be verified as accurate
No errors occurred
End of status report
---- CUETools DB Plugin V2.1.4
[CTDB TOCID: xRHc6bKd.gD0bdpbhhzxxbA5hZU-] disk not present in database
Submit result: xRHc6bKd.gD0bdpbhhzxxbA5hZU- has been uploaded
==== Log checksum 04A737FA191AC4B03D999390D6D0D803C09CC640B89B4412F0F834AFF2571E67 ====
 
Disc 3
Exact Audio Copy V1.0 beta 3 from 29. August 2011
EAC extraction logfile from 16. December 2013, 15:51
BBFC / Enregistrements 1982-1987 (BBFC Live / Papa)
Used drive : SlimtypeeNAU508 5 Adapter: 1 ID: 0
Read mode : Secure
Utilize accurate stream : Yes
Defeat audio cache : Yes
Make use of C2 pointers : No
Read offset correction : 6
Overread into Lead-In and Lead-Out : No
Fill up missing offset samples with silence : Yes
Delete leading and trailing silent blocks : No
Null samples used in CRC calculations : Yes
Used interface : Native Win32 interface for Win NT & 2000
Gap handling : Appended to previous track
Used output format : User Defined Encoder
Selected bitrate : 768 kBit/s
Quality : High
Add ID3 tag : No
Command line compressor : C:\Program Files (x86)\Exact Audio Copy\Flac\flac.exe
Additional command line options : -8 -V -T "ARTIST=%artist%" -T "TITLE=%title%" -T "ALBUM=%albumtitle%" -T "DATE=%year%" -T "TRACKNUMBER=%tracknr%" -T "GENRE=%genre%" -T "PERFORMER=%albuminterpret%" -T "COMPOSER=%composer%" %haslyrics%--tag-from-file=LYRICS="%lyricsfile%"%haslyrics% -T "ALBUMARTIST=%albumartist%" -T "DISCNUMBER=%cdnumber%" -T "TOTALDISCS=%totalcds%" -T "TOTALTRACKS=%numtracks%" -T "COMMENT=%comment%" %source% -o %dest%
TOC of the extracted CD
Track | Start | Length | Start sector | End sector
---------------------------------------------------------
1 | 0:00.00 | 7:35.37 | 0 | 34161
2 | 7:35.37 | 13:31.65 | 34162 | 95051
3 | 21:07.27 | 7:21.50 | 95052 | 128176
4 | 28:29.02 | 6:58.60 | 128177 | 159586
5 | 35:27.62 | 10:28.43 | 159587 | 206729
6 | 45:56.30 | 6:03.62 | 206730 | 234016
7 | 52:00.17 | 9:17.73 | 234017 | 275864
8 | 61:18.15 | 4:57.47 | 275865 | 298186
9 | 66:15.62 | 10:31.50 | 298187 | 345561
Track 1
Filename C:\EAC rips\01 - Tout se complique.wav
Pre-gap length 0:00:02.00
Peak level 62.3 %
Extraction speed 2.5 X
Track quality 99.9 %
Test CRC 64BB59CA
Copy CRC 64BB59CA
Accurately ripped (confidence 1) [55C62DA4] (AR v2)
Copy OK
Track 2
Filename C:\EAC rips\02 - C'est bien, oh ! c'est bien.wav
Peak level 90.1 %
Extraction speed 3.4 X
Track quality 100.0 %
Test CRC F2F45FB5
Copy CRC F2F45FB5
Accurately ripped (confidence 1) [FDF61AE6] (AR v2)
Copy OK
Track 3
Filename C:\EAC rips\03 - Au hasard.wav
Peak level 58.5 %
Extraction speed 3.8 X
Track quality 100.0 %
Test CRC 92C80D6C
Copy CRC 92C80D6C
Accurately ripped (confidence 1) [5AC9E46E] (AR v2)
Copy OK
Track 4
Filename C:\EAC rips\04 - Éléphant d'Europe.wav
Peak level 46.6 %
Extraction speed 4.1 X
Track quality 100.0 %
Test CRC E609DCE0
Copy CRC E609DCE0
Accurately ripped (confidence 1) [DDC4AFDE] (AR v2)
Copy OK
Track 5
Filename C:\EAC rips\05 - Mèche courte.wav
Peak level 58.1 %
Extraction speed 4.5 X
Track quality 100.0 %
Test CRC F2420112
Copy CRC F2420112
Accurately ripped (confidence 1) [1C0C98A3] (AR v2)
Copy OK
Track 6
Filename C:\EAC rips\06 - En attendant Mario.wav
Peak level 29.9 %
Extraction speed 4.6 X
Track quality 100.0 %
Test CRC E446D25C
Copy CRC E446D25C
Accurately ripped (confidence 1) [1D73FA13] (AR v2)
Copy OK
Track 7
Filename C:\EAC rips\07 - Tout se complique.wav
Peak level 63.2 %
Extraction speed 5.0 X
Track quality 100.0 %
Test CRC B58F942B
Copy CRC B58F942B
Accurately ripped (confidence 1) [7AD9C656] (AR v2)
Copy OK
Track 8
Filename C:\EAC rips\08 - Soufflé sentimental.wav
Peak level 45.8 %
Extraction speed 5.0 X
Track quality 100.0 %
Test CRC 9C847AA4
Copy CRC 9C847AA4
Accurately ripped (confidence 1) [5A11795B] (AR v2)
Copy OK
Track 9
Filename C:\EAC rips\09 - Le Marché de Bogota.wav
Peak level 60.6 %
Extraction speed 5.5 X
Track quality 100.0 %
Test CRC A0921470
Copy CRC A0921470
Cannot be verified as accurate (confidence 1) [2F9841A1], AccurateRip returned [6501078B] (AR v2)
Copy OK
8 track(s) accurately ripped
1 track(s) could not be verified as accurate
Some tracks could not be verified as accurate
No errors occurred
End of status report
---- CUETools DB Plugin V2.1.4
[CTDB TOCID: 7nvDGuWKfh9kxIhibtqj0lzoU_g-] disk not present in database
Submit result: 7nvDGuWKfh9kxIhibtqj0lzoU_g- has been uploaded
==== Log checksum C2D6F7D31E17E9E922FB12B271290B598455CF02F357B3D0DDD1FE0234626F63 ====
 
Содержание индексной карты (.CUE)
 
Disc 1
REM GENRE Jazz
REM DATE 1991
REM DISCID B710000D
REM COMMENT "ExactAudioCopy v1.0b3"
PERFORMER "BBFC"
TITLE "Enregistrements 1982-1987 (Cherchez l'erreur / Quelle mémoire !)"
FILE "01 - Beb.wav" WAVE
TRACK 01 AUDIO
TITLE "Beb"
PERFORMER "BBFC"
INDEX 01 00:00:00
TRACK 02 AUDIO
TITLE "Tagada"
PERFORMER "BBFC"
INDEX 00 04:34:40
FILE "02 - Tagada.wav" WAVE
INDEX 01 00:00:00
TRACK 03 AUDIO
TITLE "Oben ohne"
PERFORMER "BBFC"
INDEX 00 05:52:53
FILE "03 - Oben ohne.wav" WAVE
INDEX 01 00:00:00
TRACK 04 AUDIO
TITLE "Albatros"
PERFORMER "BBFC"
INDEX 00 05:23:42
FILE "04 - Albatros.wav" WAVE
INDEX 01 00:00:00
TRACK 05 AUDIO
TITLE "Nocturne"
PERFORMER "BBFC"
INDEX 00 03:07:23
FILE "05 - Nocturne.wav" WAVE
INDEX 01 00:00:00
TRACK 06 AUDIO
TITLE "Unten ohne"
PERFORMER "BBFC"
INDEX 00 06:01:55
FILE "06 - Unten ohne.wav" WAVE
INDEX 01 00:00:00
TRACK 07 AUDIO
TITLE "Cherchez l'erreur"
PERFORMER "BBFC"
INDEX 00 04:01:45
FILE "07 - Cherchez l'erreur.wav" WAVE
INDEX 01 00:00:00
TRACK 08 AUDIO
TITLE "Mèche courte"
PERFORMER "BBFC"
INDEX 00 08:41:68
FILE "08 - Mèche courte.wav" WAVE
INDEX 01 00:00:00
TRACK 09 AUDIO
TITLE "Paparanoïa"
PERFORMER "BBFC"
INDEX 00 04:03:58
FILE "09 - Paparanoïa.wav" WAVE
INDEX 01 00:00:00
TRACK 10 AUDIO
TITLE "Quelle mémoire !"
PERFORMER "BBFC"
INDEX 00 01:38:48
FILE "10 - Quelle mémoire !.wav" WAVE
INDEX 01 00:00:00
TRACK 11 AUDIO
TITLE "En attendant Mario"
PERFORMER "BBFC"
INDEX 00 09:06:15
FILE "11 - En attendant Mario.wav" WAVE
INDEX 01 00:00:00
TRACK 12 AUDIO
TITLE "Ragtime"
PERFORMER "BBFC"
INDEX 00 08:51:42
FILE "12 - Ragtime.wav" WAVE
INDEX 01 00:00:00
TRACK 13 AUDIO
TITLE "Le Triste"
PERFORMER "BBFC"
INDEX 00 00:41:10
FILE "13 - Le Triste.wav" WAVE
INDEX 01 00:00:00
 
Disc 2
REM GENRE Jazz
REM DATE 1991
REM DISCID A412110D
REM COMMENT "ExactAudioCopy v1.0b3"
PERFORMER "BBFC"
TITLE "Enregistrements 1982-1987 (Musique)"
FILE "01 - Aimez-vous les uns.wav" WAVE
TRACK 01 AUDIO
TITLE "Aimez-vous les uns"
PERFORMER "BBFC"
INDEX 01 00:00:00
FILE "02 - Bobocatepetl.wav" WAVE
TRACK 02 AUDIO
TITLE "Bobocatepetl"
PERFORMER "BBFC"
INDEX 01 00:00:00
FILE "03 - Dukebox.wav" WAVE
TRACK 03 AUDIO
TITLE "Dukebox"
PERFORMER "BBFC"
INDEX 01 00:00:00
FILE "04 - Ltepetacobob.wav" WAVE
TRACK 04 AUDIO
TITLE "Ltepetacobob"
PERFORMER "BBFC"
INDEX 01 00:00:00
FILE "05 - Et les autres _.wav" WAVE
TRACK 05 AUDIO
TITLE "Et les autres ?"
PERFORMER "BBFC"
INDEX 01 00:00:00
FILE "06 - Tu m'as dit d'aimer.wav" WAVE
TRACK 06 AUDIO
TITLE "Tu m'as dit d'aimer"
PERFORMER "BBFC"
INDEX 01 00:00:00
FILE "07 - Dracurella.wav" WAVE
TRACK 07 AUDIO
TITLE "Dracurella"
PERFORMER "BBFC"
INDEX 01 00:00:00
FILE "08 - À l'est des dents.wav" WAVE
TRACK 08 AUDIO
TITLE "À l'est des dents"
PERFORMER "BBFC"
INDEX 01 00:00:00
FILE "09 - Votre compte est bon.wav" WAVE
TRACK 09 AUDIO
TITLE "Votre compte est bon"
PERFORMER "BBFC"
INDEX 01 00:00:00
FILE "10 - Mozart est là.wav" WAVE
TRACK 10 AUDIO
TITLE "Mozart est là"
PERFORMER "BBFC"
INDEX 01 00:00:00
FILE "11 - Moi aussi.wav" WAVE
TRACK 11 AUDIO
TITLE "Moi aussi"
PERFORMER "BBFC"
INDEX 01 00:00:00
FILE "12 - West Side Sorry.wav" WAVE
TRACK 12 AUDIO
TITLE "West Side Sorry"
PERFORMER "BBFC"
INDEX 01 00:00:00
FILE "13 - Fin de partouze.wav" WAVE
TRACK 13 AUDIO
TITLE "Fin de partouze"
PERFORMER "BBFC"
INDEX 01 00:00:00
 
Disc 3
REM GENRE Jazz
REM DATE 1991
REM DISCID 8511FF09
REM COMMENT "ExactAudioCopy v1.0b3"
PERFORMER "BBFC"
TITLE "Enregistrements 1982-1987 (BBFC Live / Papa) "
FILE "01 - Tout se complique.wav" WAVE
TRACK 01 AUDIO
TITLE "Tout se complique"
PERFORMER "BBFC"
INDEX 01 00:00:00
FILE "02 - C'est bien, oh ! c'est bien.wav" WAVE
TRACK 02 AUDIO
TITLE "C'est bien, oh ! c'est bien"
PERFORMER "BBFC"
INDEX 01 00:00:00
FILE "03 - Au hasard.wav" WAVE
TRACK 03 AUDIO
TITLE "Au hasard"
PERFORMER "BBFC"
INDEX 01 00:00:00
FILE "04 - Éléphant d'Europe.wav" WAVE
TRACK 04 AUDIO
TITLE "Éléphant d'Europe"
PERFORMER "BBFC"
INDEX 01 00:00:00
FILE "05 - Mèche courte.wav" WAVE
TRACK 05 AUDIO
TITLE "Mèche courte"
PERFORMER "BBFC"
INDEX 01 00:00:00
FILE "06 - En attendant Mario.wav" WAVE
TRACK 06 AUDIO
TITLE "En attendant Mario"
PERFORMER "BBFC"
INDEX 01 00:00:00
FILE "07 - Tout se complique.wav" WAVE
TRACK 07 AUDIO
TITLE "Tout se complique"
PERFORMER "BBFC"
INDEX 01 00:00:00
FILE "08 - Soufflé sentimental.wav" WAVE
TRACK 08 AUDIO
TITLE "Soufflé sentimental"
PERFORMER "BBFC"
INDEX 01 00:00:00
FILE "09 - Le Marché de Bogota.wav" WAVE
TRACK 09 AUDIO
TITLE "Le Marché de Bogota"
PERFORMER "BBFC"
INDEX 01 00:00:00
Доп. информация: Re-edition on three CDs of the first five LPs (which one is a double) of the BBFC.
По всем вопросам пишите личное сообщение пользователю M0p94ok.
21:34
165
Нет комментариев. Ваш будет первым!