Вы используете незарегистрированную версию компонента "Вкладки"!

Поиск

(Free Jazz, Post-Bop, Avant-Garde Jazz) [CD] Dewey Redman - Living on the Edge - 1990, FLAC (image+.cue), lossless

(Free Jazz, Post-Bop, Avant-Garde Jazz) [CD] Dewey Redman - Living on the Edge - 1990, FLAC (image+.cue), lossless
Треклист:
Dewey Redman - Living on the Edge
Жанр: Free Jazz, Post-Bop, Avant-Garde Jazz
Носитель: CD
Страна-производитель диска: Италия
Год издания: 1990
Издатель (лейбл): Black Saint
Номер по каталогу: 120123-2
Страна: США
Аудиокодек: FLAC (*.flac)
Тип рипа: image+.cue
Битрейт аудио: lossless
Продолжительность: 44:13
Источник (релизер): improvisador (hqshare)
Наличие сканов в содержимом раздачи: да
Треклист:
01. Boo Boodoop (Redman) - 9:49
02. Mirror Windows (Redman) - 8:38
03. Blues for J.A.M. - Part 1 (Redman) - 5:07
04. If I Should Lose You (Robin-Rainger) - 8:11
05. As One (Redman) - 6:03
06. Lazy Bird (Coltrane) - 6:24
Состав:
Dewey Redman - alto saxophone, tenor saxophone
Geri Allen - piano
Cameron Brown - bass
Eddie Moore - drums
Recorded at A&R Recording Studio, New York on September 13-14, 1989.
 
Лог создания рипа
EAC extraction logfile from 29. October 2006, 14:46 for CD
Dewey Redman / Living On The Edge
Used drive : HL-DT-STCD-RW GCE-8525B Adapter: 1 ID: 0
Read mode : Secure with NO C2, accurate stream, disable cache
Read offset correction : 6
Overread into Lead-In and Lead-Out : No
Used output format : G:\Monkey's Audio\MAC.exe (Monkey's Audio Lossless Encoder)
Extra High Lossless Compression
Other options :
Fill up missing offset samples with silence : Yes
Delete leading and trailing silent blocks : No
Installed external ASPI interface
Range status and errors
Selected range
Filename G:\JAZZ\PUBLICACIONES\Dewey Redman - Living on the Edge\CDImage.wav
Peak level 99.8 %
Range quality 99.9 %
CRC CBE0DE93
Copy OK
No errors occured
End of status report
 
Содержание индексной карты (.CUE)
REM GENRE Jazz
REM DATE 1989
PERFORMER "Dewey Redman"
TITLE "Living on the Edge"
FILE "Dewey Redman - Living on the Edge.wav" WAVE
TRACK 01 AUDIO
TITLE "Boo Boodoop"
PERFORMER "Dewey Redman"
INDEX 00 00:00:00
INDEX 01 00:00:33
TRACK 02 AUDIO
TITLE "Mirror Windows"
PERFORMER "Dewey Redman"
INDEX 01 09:49:58
TRACK 03 AUDIO
TITLE "Blues for J.A.M. - Part 1"
PERFORMER "Dewey Redman"
INDEX 00 14:10:58
INDEX 01 18:27:53
TRACK 04 AUDIO
TITLE "If I Should Lose You"
PERFORMER "Dewey Redman"
INDEX 01 23:34:63
TRACK 05 AUDIO
TITLE "As One"
PERFORMER "Dewey Redman"
INDEX 01 31:46:23
TRACK 06 AUDIO
TITLE "Lazy Bird"
PERFORMER "Dewey Redman"
INDEX 01 37:49:40
 
Review by Scott Yanow
The great tenor Dewey Redman has always been a versatile player and he really gets a chance to show off his individuality on this set, whether it is some freebop a la early Ornette Coleman, "Mirror Windows" (which is an explosion of sound and pure energy), the soulful "Blues for J.A.M. - Part 1," a free and speechlike tenor-piano duet with Geri Allen on "As One" and a boppish "Lazy Bird." On "If I Should Lose You," Redman has a rare chance to play some conventional but cliché-free alto. With bassist Cameron Brown and drummer Eddie Moore forming a solid team, this is an easily recommended set of inside/outside music.
На замену http://rutracker.org/forum/viewtopic.php?t=658565
Any questions -> support@pro-jazz.com. По всем вопросам пишите -> support@pro-jazz.com
21:34
159
Нет комментариев. Ваш будет первым!