Вы используете незарегистрированную версию компонента "Вкладки"!

Поиск

(Avant-Garde Jazz, Experimental, Improvisation) [CD] Keith Jarrett - No End (2CD) - 2013 (ECM 2361/62), FLAC (tracks+.cue), lossless

(Avant-Garde Jazz, Experimental, Improvisation) [CD] Keith Jarrett - No End (2CD) - 2013 (ECM 2361/62), FLAC (tracks+.cue), lossless
Треклист:
Keith Jarrett - No End
Жанр: Avant-Garde Jazz, Experimental, Improvisation
Носитель: CD
Страна-производитель диска: Германия
Год издания: 2013
Издатель (лейбл): ECM Records
Номер по каталогу: ECM 2361/62 (3755519)
Аудиокодек: FLAC (*.flac)
Тип рипа: tracks+.cue
Битрейт аудио: lossless
Продолжительность: 1:32:50
Источник (релизер): chriss71AT (what)
Наличие сканов в содержимом раздачи: да
Состав:
Keith Jarrett - electric guitars, Fender bass, drums, tablas, percussion, voice, recorder, piano
Music by Keith Jarrett.
Recorded at Cavelight Studio, New Jersey in 1986.
Producer's Note: Play this music LOUD, especially tracks 2 to 20, since many inner details will be lost at lower volumes.
 
CD1 {46:46}
01. I (7:23)
02. II (3:38)
03. III (5:40)
04. IV (5:25)
05. V (3:39)
06. VI (5:37)
07. VII (4:06)
08. VIII (3:57)
09. IX (4:48)
10. X (2:33)
 
Лог создания рипа
Exact Audio Copy V1.0 beta 3 from 29. August 2011
EAC extraction logfile from 18. December 2013, 0:48
Keith Jarrett / No End CD1
Used drive : HL-DT-STDVDRAM GH20NS10 Adapter: 2 ID: 1
Read mode : Secure
Utilize accurate stream : Yes
Defeat audio cache : Yes
Make use of C2 pointers : No
Read offset correction : 667
Overread into Lead-In and Lead-Out : No
Fill up missing offset samples with silence : Yes
Delete leading and trailing silent blocks : No
Null samples used in CRC calculations : Yes
Used interface : Native Win32 interface for Win NT & 2000
Gap handling : Appended to previous track
Used output format : User Defined Encoder
Selected bitrate : 1024 kBit/s
Quality : High
Add ID3 tag : No
Command line compressor : C:\Program Files\Exact Audio Copy\Flac\flac.exe
Additional command line options : -8 -V -T "ARTIST=%artist%" -T "TITLE=%title%" -T "ALBUM=%albumtitle%" -T "DATE=%year%" -T "TRACKNUMBER=%tracknr%" -T "TOTALTRACKS=%numtracks%" -T "GENRE=%genre%" -T "ALBUMARTIST=%albumartist%" -T "ALBUM ARTIST=%albumartist%" -T "COMMENT=EAC Secure Mode, Test & Copy, AccurateRip, FLAC -8" %source%
TOC of the extracted CD
Track | Start | Length | Start sector | End sector
---------------------------------------------------------
1 | 0:00.00 | 7:22.68 | 0 | 33217
2 | 7:22.68 | 3:37.56 | 33218 | 49548
3 | 11:00.49 | 5:39.45 | 49549 | 75018
4 | 16:40.19 | 5:25.18 | 75019 | 99411
5 | 22:05.37 | 3:39.27 | 99412 | 115863
6 | 25:44.64 | 5:36.42 | 115864 | 141105
7 | 31:21.31 | 4:06.00 | 141106 | 159555
8 | 35:27.31 | 3:57.10 | 159556 | 177340
9 | 39:24.41 | 4:47.73 | 177341 | 198938
10 | 44:12.39 | 2:33.17 | 198939 | 210430
Track 1
Filename D:\Keith Jarrett - No End (2013) [FLAC]\CD1\01 - I.wav
Pre-gap length 0:00:02.00
Peak level 79.8 %
Extraction speed 4.6 X
Track quality 99.9 %
Test CRC E60EF56B
Copy CRC E60EF56B
Track not present in AccurateRip database
Copy OK
Track 2
Filename D:\Keith Jarrett - No End (2013) [FLAC]\CD1\02 - II.wav
Peak level 90.3 %
Extraction speed 3.9 X
Track quality 100.0 %
Test CRC 58F532CD
Copy CRC 58F532CD
Track not present in AccurateRip database
Copy OK
Track 3
Filename D:\Keith Jarrett - No End (2013) [FLAC]\CD1\03 - III.wav
Peak level 88.4 %
Extraction speed 4.0 X
Track quality 99.9 %
Test CRC 197DE9FA
Copy CRC 197DE9FA
Track not present in AccurateRip database
Copy OK
Track 4
Filename D:\Keith Jarrett - No End (2013) [FLAC]\CD1\04 - IV.wav
Peak level 100.0 %
Extraction speed 5.5 X
Track quality 100.0 %
Test CRC 999A8E31
Copy CRC 999A8E31
Track not present in AccurateRip database
Copy OK
Track 5
Filename D:\Keith Jarrett - No End (2013) [FLAC]\CD1\05 - V.wav
Peak level 75.7 %
Extraction speed 5.5 X
Track quality 100.0 %
Test CRC C11DD3F8
Copy CRC C11DD3F8
Track not present in AccurateRip database
Copy OK
Track 6
Filename D:\Keith Jarrett - No End (2013) [FLAC]\CD1\06 - VI.wav
Peak level 94.9 %
Extraction speed 4.9 X
Track quality 100.0 %
Test CRC 1610E8E1
Copy CRC 1610E8E1
Track not present in AccurateRip database
Copy OK
Track 7
Filename D:\Keith Jarrett - No End (2013) [FLAC]\CD1\07 - VII.wav
Peak level 74.8 %
Extraction speed 4.1 X
Track quality 99.9 %
Test CRC 5408C272
Copy CRC 5408C272
Track not present in AccurateRip database
Copy OK
Track 8
Filename D:\Keith Jarrett - No End (2013) [FLAC]\CD1\08 - VIII.wav
Peak level 88.6 %
Extraction speed 5.5 X
Track quality 100.0 %
Test CRC F1024639
Copy CRC F1024639
Track not present in AccurateRip database
Copy OK
Track 9
Filename D:\Keith Jarrett - No End (2013) [FLAC]\CD1\09 - IX.wav
Peak level 81.6 %
Extraction speed 6.2 X
Track quality 100.0 %
Test CRC 3073D94C
Copy CRC 3073D94C
Track not present in AccurateRip database
Copy OK
Track 10
Filename D:\Keith Jarrett - No End (2013) [FLAC]\CD1\10 - X.wav
Peak level 79.8 %
Extraction speed 6.2 X
Track quality 100.0 %
Test CRC 25F4C117
Copy CRC 25F4C117
Track not present in AccurateRip database
Copy OK
None of the tracks are present in the AccurateRip database
No errors occurred
End of status report
==== Log checksum AD008B93E76A600A6CD19A9CBEC16C31AFBB76BB7669DF66A823404D20BD89A9 ====
 
Содержание индексной карты (.CUE)
REM GENRE Jazz
REM DATE 2013
REM DISCID 800AF50A
REM COMMENT "ExactAudioCopy v1.0b3"
PERFORMER "Keith Jarrett"
TITLE "No End CD1"
FILE "01 - I.wav" WAVE
TRACK 01 AUDIO
TITLE "I"
PERFORMER "Keith Jarrett"
INDEX 01 00:00:00
FILE "02 - II.wav" WAVE
TRACK 02 AUDIO
TITLE "II"
PERFORMER "Keith Jarrett"
INDEX 01 00:00:00
FILE "03 - III.wav" WAVE
TRACK 03 AUDIO
TITLE "III"
PERFORMER "Keith Jarrett"
INDEX 01 00:00:00
FILE "04 - IV.wav" WAVE
TRACK 04 AUDIO
TITLE "IV"
PERFORMER "Keith Jarrett"
INDEX 01 00:00:00
FILE "05 - V.wav" WAVE
TRACK 05 AUDIO
TITLE "V"
PERFORMER "Keith Jarrett"
INDEX 01 00:00:00
FILE "06 - VI.wav" WAVE
TRACK 06 AUDIO
TITLE "VI"
PERFORMER "Keith Jarrett"
INDEX 01 00:00:00
FILE "07 - VII.wav" WAVE
TRACK 07 AUDIO
TITLE "VII"
PERFORMER "Keith Jarrett"
INDEX 01 00:00:00
FILE "08 - VIII.wav" WAVE
TRACK 08 AUDIO
TITLE "VIII"
PERFORMER "Keith Jarrett"
INDEX 01 00:00:00
FILE "09 - IX.wav" WAVE
TRACK 09 AUDIO
TITLE "IX"
PERFORMER "Keith Jarrett"
INDEX 01 00:00:00
FILE "10 - X.wav" WAVE
TRACK 10 AUDIO
TITLE "X"
PERFORMER "Keith Jarrett"
INDEX 01 00:00:00
 
Отчет CUETools
[CUETools log; Date: 19.12.2013 1:40:06; Version: 2.1.4]
[CTDB TOCID: itBWZXiK.okcLPBa86TIDz.hin0-] found.
Track | CTDB Status
1 | (3/3) Accurately ripped
2 | (3/3) Accurately ripped
3 | (3/3) Accurately ripped
4 | (3/3) Accurately ripped
5 | (3/3) Accurately ripped
6 | (3/3) Differs in 2 samples @02:55:32
7 | (3/3) Accurately ripped
8 | (3/3) Accurately ripped
9 | (3/3) Accurately ripped
10 | (3/3) Accurately ripped
[AccurateRip ID: 00133b93-0096a1b2-800af50a] disk not present in database.
Track Peak [ CRC32 ] [W/O NULL] [ LOG ]
-- 100,0 [2394BE5C] [B53C835E]
01 79,8 [E60EF56B] [B7CE5121] CRC32
02 90,3 [58F532CD] [43DD3CCB] CRC32
03 88,4 [197DE9FA] [C3A0BDF7] CRC32
04 100,0 [999A8E31] [9917261A] CRC32
05 75,7 [C11DD3F8] [BE808363] CRC32
06 94,9 [1610E8E1] [09DA754B] CRC32
07 74,8 [5408C272] [776E4052] CRC32
08 88,6 [F1024639] [081E8D73] CRC32
09 81,6 [3073D94C] [671EED6B] CRC32
10 79,8 [25F4C117] [946A7E7F] CRC32
 
CD2 {46:05}
01. XI (4:06)
02. XII (6:15)
03. XIII (3:49)
04. XIV (4:56)
05. XV (4:28)
06. XVI (2:46)
07. XVII (3:40)
08. XVIII (5:48)
09. XIX (7:13)
10. XX (3:04)
 
Лог создания рипа
Exact Audio Copy V1.0 beta 3 from 29. August 2011
EAC extraction logfile from 18. December 2013, 2:03
Keith Jarrett / No End CD 2
Used drive : HL-DT-STDVDRAM GH20NS10 Adapter: 2 ID: 1
Read mode : Secure
Utilize accurate stream : Yes
Defeat audio cache : Yes
Make use of C2 pointers : No
Read offset correction : 667
Overread into Lead-In and Lead-Out : No
Fill up missing offset samples with silence : Yes
Delete leading and trailing silent blocks : No
Null samples used in CRC calculations : Yes
Used interface : Native Win32 interface for Win NT & 2000
Gap handling : Appended to previous track
Used output format : User Defined Encoder
Selected bitrate : 1024 kBit/s
Quality : High
Add ID3 tag : No
Command line compressor : C:\Program Files\Exact Audio Copy\Flac\flac.exe
Additional command line options : -8 -V -T "ARTIST=%artist%" -T "TITLE=%title%" -T "ALBUM=%albumtitle%" -T "DATE=%year%" -T "TRACKNUMBER=%tracknr%" -T "TOTALTRACKS=%numtracks%" -T "GENRE=%genre%" -T "ALBUMARTIST=%albumartist%" -T "ALBUM ARTIST=%albumartist%" -T "COMMENT=EAC Secure Mode, Test & Copy, AccurateRip, FLAC -8" %source%
TOC of the extracted CD
Track | Start | Length | Start sector | End sector
---------------------------------------------------------
1 | 0:00.00 | 4:05.67 | 0 | 18441
2 | 4:05.67 | 6:14.51 | 18442 | 46542
3 | 10:20.43 | 3:48.63 | 46543 | 63705
4 | 14:09.31 | 4:55.69 | 63706 | 85899
5 | 19:05.25 | 4:28.22 | 85900 | 106021
6 | 23:33.47 | 2:46.02 | 106022 | 118473
7 | 26:19.49 | 3:40.04 | 118474 | 134977
8 | 29:59.53 | 5:48.07 | 134978 | 161084
9 | 35:47.60 | 7:12.58 | 161085 | 193542
10 | 43:00.43 | 3:04.08 | 193543 | 207350
Track 1
Filename D:\Keith Jarrett - No End (2013) [FLAC]\CD2\01 - XI.wav
Pre-gap length 0:00:02.00
Peak level 71.7 %
Extraction speed 3.4 X
Track quality 100.0 %
Test CRC BFF19194
Copy CRC BFF19194
Track not present in AccurateRip database
Copy OK
Track 2
Filename D:\Keith Jarrett - No End (2013) [FLAC]\CD2\02 - XII.wav
Peak level 59.1 %
Extraction speed 4.1 X
Track quality 100.0 %
Test CRC 3C5647B0
Copy CRC 3C5647B0
Track not present in AccurateRip database
Copy OK
Track 3
Filename D:\Keith Jarrett - No End (2013) [FLAC]\CD2\03 - XIII.wav
Peak level 78.3 %
Extraction speed 4.2 X
Track quality 100.0 %
Test CRC 639FDB02
Copy CRC 639FDB02
Track not present in AccurateRip database
Copy OK
Track 4
Filename D:\Keith Jarrett - No End (2013) [FLAC]\CD2\04 - XIV.wav
Peak level 68.2 %
Extraction speed 4.4 X
Track quality 100.0 %
Test CRC FAB4D809
Copy CRC FAB4D809
Track not present in AccurateRip database
Copy OK
Track 5
Filename D:\Keith Jarrett - No End (2013) [FLAC]\CD2\05 - XV.wav
Peak level 76.8 %
Extraction speed 5.0 X
Track quality 100.0 %
Test CRC EFA283A4
Copy CRC EFA283A4
Track not present in AccurateRip database
Copy OK
Track 6
Filename D:\Keith Jarrett - No End (2013) [FLAC]\CD2\06 - XVI.wav
Peak level 71.0 %
Extraction speed 5.0 X
Track quality 100.0 %
Test CRC AB999536
Copy CRC AB999536
Track not present in AccurateRip database
Copy OK
Track 7
Filename D:\Keith Jarrett - No End (2013) [FLAC]\CD2\07 - XVII.wav
Peak level 71.0 %
Extraction speed 5.2 X
Track quality 100.0 %
Test CRC 527F5184
Copy CRC 527F5184
Track not present in AccurateRip database
Copy OK
Track 8
Filename D:\Keith Jarrett - No End (2013) [FLAC]\CD2\08 - XVIII.wav
Peak level 67.0 %
Extraction speed 5.9 X
Track quality 100.0 %
Test CRC 10F9392E
Copy CRC 10F9392E
Track not present in AccurateRip database
Copy OK
Track 9
Filename D:\Keith Jarrett - No End (2013) [FLAC]\CD2\09 - XIX.wav
Peak level 68.4 %
Extraction speed 6.1 X
Track quality 100.0 %
Test CRC 855E785E
Copy CRC 855E785E
Track not present in AccurateRip database
Copy OK
Track 10
Filename D:\Keith Jarrett - No End (2013) [FLAC]\CD2\10 - XX.wav
Peak level 64.7 %
Extraction speed 5.8 X
Track quality 100.0 %
Test CRC 69870959
Copy CRC 69870959
Track not present in AccurateRip database
Copy OK
None of the tracks are present in the AccurateRip database
No errors occurred
End of status report
==== Log checksum D2FA25D4D5A6D2DE7C62EA4A225BDCC6C6C6E4DBDB06C5D7EB720CDCE20C02C9 ====
 
Содержание индексной карты (.CUE)
REM GENRE Jazz
REM DATE 2013
REM DISCID 790ACC0A
REM COMMENT "ExactAudioCopy v1.0b3"
PERFORMER "Keith Jarrett"
TITLE "No End CD2"
FILE "01 - XI.wav" WAVE
TRACK 01 AUDIO
TITLE "XI"
PERFORMER "Keith Jarrett"
INDEX 01 00:00:00
FILE "02 - XII.wav" WAVE
TRACK 02 AUDIO
TITLE "XII"
PERFORMER "Keith Jarrett"
INDEX 01 00:00:00
FILE "03 - XIII.wav" WAVE
TRACK 03 AUDIO
TITLE "XIII"
PERFORMER "Keith Jarrett"
INDEX 01 00:00:00
FILE "04 - XIV.wav" WAVE
TRACK 04 AUDIO
TITLE "XIV"
PERFORMER "Keith Jarrett"
INDEX 01 00:00:00
FILE "05 - XV.wav" WAVE
TRACK 05 AUDIO
TITLE "XV"
PERFORMER "Keith Jarrett"
INDEX 01 00:00:00
FILE "06 - XVI.wav" WAVE
TRACK 06 AUDIO
TITLE "XVI"
PERFORMER "Keith Jarrett"
INDEX 01 00:00:00
FILE "07 - XVII.wav" WAVE
TRACK 07 AUDIO
TITLE "XVII"
PERFORMER "Keith Jarrett"
INDEX 01 00:00:00
FILE "08 - XVIII.wav" WAVE
TRACK 08 AUDIO
TITLE "XVIII"
PERFORMER "Keith Jarrett"
INDEX 01 00:00:00
FILE "09 - XIX.wav" WAVE
TRACK 09 AUDIO
TITLE "XIX"
PERFORMER "Keith Jarrett"
INDEX 01 00:00:00
FILE "10 - XX.wav" WAVE
TRACK 10 AUDIO
TITLE "XX"
PERFORMER "Keith Jarrett"
INDEX 01 00:00:00
 
Отчет CUETools
[CUETools log; Date: 19.12.2013 1:40:18; Version: 2.1.4]
[CTDB TOCID: cIo.G04CBfwAewD5EAAi25Gh4xg-] found.
Track | CTDB Status
1 | (3/3) Accurately ripped
2 | (3/3) Accurately ripped
3 | (3/3) Accurately ripped
4 | (3/3) Accurately ripped
5 | (3/3) Accurately ripped
6 | (3/3) Accurately ripped
7 | (3/3) Accurately ripped
8 | (3/3) Accurately ripped
9 | (3/3) Accurately ripped
10 | (3/3) Accurately ripped
[AccurateRip ID: 001155ac-008a6e28-790acc0a] disk not present in database.
Track Peak [ CRC32 ] [W/O NULL] [ LOG ]
-- 78,3 [94D4EF59] [D6847CD0]
01 71,7 [BFF19194] [FE9917EB] CRC32
02 59,1 [3C5647B0] [05DCCE72] CRC32
03 78,3 [639FDB02] [EC1C5AE0] CRC32
04 68,2 [FAB4D809] [298BA6D9] CRC32
05 76,8 [EFA283A4] [BB795D4F] CRC32
06 71,0 [AB999536] [4C69B630] CRC32
07 71,0 [527F5184] [526DA2BC] CRC32
08 67,0 [10F9392E] [089ED5DD] CRC32
09 68,4 [855E785E] [DF552EBE] CRC32
10 64,7 [69870959] [A3C6BD50] CRC32
 
Review by Thom Jurek
It is almost always revealing -- if sometimes messy -- to hear artists of great stature messing about in their home studios, making music they never intended anyone else to hear. Keith Jarrett's No End is such an effort: a two-disc archival home recording from 1986 on which he performs all the instrumental parts. It was cut only a year after the wide-ranging, multi-instrument, acoustic exercise Spirits with its notional nod toward global music. No End is a related but different animal. Jarrett plays piano here, but his primary instruments on this set are drums, electric guitars, basses, tablas, and other percussion, with piano and recorder added. Mostly, he plays and improvises on instinctive vamps and rhythms, and overdubs between two cassette recorders -- there's a lot of hiss (very rare for ECM), but it's not distracting. No End proves that Jarrett loved rock & roll, blues, and funk as much as anything else at one time, and was a true son of the '60s and all they entailed. Not all of the world music notions from Spirits have been exorcized, but when they appear, they're usually woven inside a more "rockist" framework. This loose, groove-centric music is (mostly) interesting on two levels: one, because it's Jarrett playing it, but also because it contains its own charm. When these experiments don't work, it's more a lack of virtuoso guitar chops than ideas. He's good at the instrument, just not great. These 20 numbered pieces range in length from just under three minutes to over seven. These ideas develop according to the many faces of rhythm itself, not harmonic forethought. All the instruments are played with deep inner attention paid to them. On "II," the bass and drum attack is based on a speculative but meaty funk vamp; the guitars crawl in, speaking to one another in staggered lines and bumping into one another. The slippery drums on "III" offer a funky African groove as tablas and other percussion are layered into the backdrop with Jarrett's wordless chanted vocals as the guitars wind around a blues riff. "V" is Caribbean-flavored but its time is a basic 4/4. There is also a direct hint at jazz-funk, evidenced by "VII." The hard bass whomp on "XIII" goes head-to-head with stinging guitar lines in reply as a cowbell, tom-toms, and tablas drive it home. "XIV" contains a Spanish tinge, seemingly perceived through Ornette Coleman's late-'70s harmolodic music. No End will not appeal to everyone -- especially not all Jarrett fans. But those who've closely observed his processes and evolution will likely embrace it, as will fans of experimental guitar-based rock. His reason for releasing it now can be gleaned from his short but illuminating liner essay, but suffice to say, it makes for a welcome addition to the catalog of one of the most mercurial musicians to emerge from the last century.
Any questions -> support@pro-jazz.com. По всем вопросам пишите -> support@pro-jazz.com
21:35
226
Нет комментариев. Ваш будет первым!