Вы используете незарегистрированную версию компонента "Вкладки"!

Поиск

(Avant-Garde, Contemporary Psychedelic Jazz) [CD] Animus Anima (Nicolas Ankoudinoff, Benoist Eil, Pascal Rousseau, Etienne Plumer) - Qu'est-ce que tu crois ? - 2010, FLAC (tracks+.cue), lossless

(Avant-Garde, Contemporary Psychedelic Jazz) [CD] Animus Anima (Nicolas Ankoudinoff, Benoist Eil, Pascal Rousseau, Etienne Plumer) - Qu'est-ce que tu crois ? - 2010, FLAC (tracks+.cue), lossless
Треклист:
Animus Anima / Qu'est-ce que tu crois ?
Жанр: Avant-Garde, Contemporary Psychedelic Jazz
Носитель: CD
Страна-производитель диска: Belgium
Год издания: 2010
Издатель (лейбл): Rat Records
Номер по каталогу: rat rec 013
Аудиокодек: FLAC (*.flac)
Тип рипа: tracks+.cue
Битрейт аудио: lossless
Продолжительность: 41:51
Источник (релизер): я
Наличие сканов в содержимом раздачи: да
Треклист:
1. Naïf 7:46
2. Sweet Plumer Jungle 4:24
3. Qu’est-ce que tu crois 11:10
4. La Promesse 5:02
5. Scherzoo des animaux 4:35
6. Camera obscura 5:05
7. Qu’est-ce que tu crois – End 3:49
All compositions by Nicolas Ankoudinoff. Arranged by Animus Anima.
Recorded at Caraïbes Studio, Brussels, November 2009.
Nicolas Ankoudinoff – Tenor & Soprano Saxophones
Benoist Eil – 220V Guitar
Pascal Rousseau – Tuba and Fuzz Tuba
Étienne Plumer – Drums & Percussion
 
Лог создания рипа
Exact Audio Copy V1.0 beta 3 from 29. August 2011
EAC extraction logfile from 19. December 2013, 14:05
Animus Anima / Qu'est-ce que tu crois ?
Used drive : SlimtypeeNAU508 5 Adapter: 1 ID: 0
Read mode : Secure
Utilize accurate stream : Yes
Defeat audio cache : Yes
Make use of C2 pointers : No
Read offset correction : 6
Overread into Lead-In and Lead-Out : No
Fill up missing offset samples with silence : Yes
Delete leading and trailing silent blocks : No
Null samples used in CRC calculations : Yes
Used interface : Native Win32 interface for Win NT & 2000
Gap handling : Appended to previous track
Used output format : User Defined Encoder
Selected bitrate : 768 kBit/s
Quality : High
Add ID3 tag : No
Command line compressor : C:\Program Files (x86)\Exact Audio Copy\Flac\flac.exe
Additional command line options : -8 -V -T "ARTIST=%artist%" -T "TITLE=%title%" -T "ALBUM=%albumtitle%" -T "DATE=%year%" -T "TRACKNUMBER=%tracknr%" -T "GENRE=%genre%" -T "PERFORMER=%albuminterpret%" -T "COMPOSER=%composer%" %haslyrics%--tag-from-file=LYRICS="%lyricsfile%"%haslyrics% -T "ALBUMARTIST=%albumartist%" -T "DISCNUMBER=%cdnumber%" -T "TOTALDISCS=%totalcds%" -T "TOTALTRACKS=%numtracks%" -T "COMMENT=%comment%" %source% -o %dest%
TOC of the extracted CD
Track | Start | Length | Start sector | End sector
---------------------------------------------------------
1 | 0:00.45 | 7:46.29 | 45 | 35023
2 | 7:46.74 | 4:24.08 | 35024 | 54831
3 | 12:11.07 | 11:09.65 | 54832 | 105071
4 | 23:20.72 | 5:01.44 | 105072 | 127690
5 | 28:22.41 | 4:35.24 | 127691 | 148339
6 | 32:57.65 | 5:05.08 | 148340 | 171222
7 | 38:02.73 | 3:48.38 | 171223 | 188360
Track 1
Filename C:\EAC rips\01 - Naïf.wav
Pre-gap length 0:00:02.45
Peak level 98.8 %
Extraction speed 1.1 X
Track quality 100.0 %
Test CRC BB515907
Copy CRC BB515907
Track not present in AccurateRip database
Copy OK
Track 2
Filename C:\EAC rips\02 - Sweet Plumer Jungle.wav
Peak level 98.8 %
Extraction speed 1.3 X
Track quality 100.0 %
Test CRC F6277744
Copy CRC F6277744
Track not present in AccurateRip database
Copy OK
Track 3
Filename C:\EAC rips\03 - Qu'est-ce que tu crois.wav
Peak level 98.8 %
Extraction speed 1.6 X
Track quality 100.0 %
Test CRC 540D438C
Copy CRC 540D438C
Track not present in AccurateRip database
Copy OK
Track 4
Filename C:\EAC rips\04 - La Promesse.wav
Peak level 98.8 %
Extraction speed 1.6 X
Track quality 100.0 %
Test CRC F0E2B117
Copy CRC F0E2B117
Track not present in AccurateRip database
Copy OK
Track 5
Filename C:\EAC rips\05 - Scherzoo des animaux.wav
Peak level 98.8 %
Extraction speed 1.7 X
Track quality 100.0 %
Test CRC ED6CAA6A
Copy CRC ED6CAA6A
Track not present in AccurateRip database
Copy OK
Track 6
Filename C:\EAC rips\06 - Camera obscura.wav
Peak level 98.8 %
Extraction speed 1.6 X
Track quality 99.9 %
Test CRC 826ACBE6
Copy CRC 826ACBE6
Track not present in AccurateRip database
Copy OK
Track 7
Filename C:\EAC rips\07 - Qu'est-ce que tu crois - End.wav
Peak level 98.8 %
Extraction speed 1.8 X
Track quality 100.0 %
Test CRC 4DC8D795
Copy CRC 4DC8D795
Track not present in AccurateRip database
Copy OK
None of the tracks are present in the AccurateRip database
No errors occurred
End of status report
---- CUETools DB Plugin V2.1.4
[CTDB TOCID: 1_n0k7ALL2NMiQYoS3aZZ1iv3hk-] disk not present in database
Submit result: 1_n0k7ALL2NMiQYoS3aZZ1iv3hk- has been uploaded
==== Log checksum 581EFF8B2C3ADB2B66724840C08D0729A7D07C2BD1AA8AD9491AFFD06EC9B340 ====
 
Содержание индексной карты (.CUE)
REM GENRE Jazz
REM DATE 2010
REM DISCID 5E09CF07
REM COMMENT "ExactAudioCopy v1.0b3"
PERFORMER "Animus Anima"
TITLE "Qu'est-ce que tu crois ?"
FILE "01 - Naïf.wav" WAVE
TRACK 01 AUDIO
TITLE "Naïf"
PERFORMER "Animus Anima"
ISRC BEV821000001
PREGAP 00:00:45
INDEX 01 00:00:00
FILE "02 - Sweet Plumer Jungle.wav" WAVE
TRACK 02 AUDIO
TITLE "Sweet Plumer Jungle"
PERFORMER "Animus Anima"
ISRC BEV821000002
INDEX 01 00:00:00
FILE "03 - Qu'est-ce que tu crois.wav" WAVE
TRACK 03 AUDIO
TITLE "Qu'est-ce que tu crois"
PERFORMER "Animus Anima"
ISRC BEV821000003
INDEX 01 00:00:00
FILE "04 - La Promesse.wav" WAVE
TRACK 04 AUDIO
TITLE "La Promesse"
PERFORMER "Animus Anima"
ISRC BEV821000004
INDEX 01 00:00:00
FILE "05 - Scherzoo des animaux.wav" WAVE
TRACK 05 AUDIO
TITLE "Scherzoo des animaux"
PERFORMER "Animus Anima"
ISRC BEV821000005
INDEX 01 00:00:00
FILE "06 - Camera obscura.wav" WAVE
TRACK 06 AUDIO
TITLE "Camera obscura"
PERFORMER "Animus Anima"
ISRC BEV821000006
INDEX 01 00:00:00
FILE "07 - Qu'est-ce que tu crois - End.wav" WAVE
TRACK 07 AUDIO
TITLE "Qu'est-ce que tu crois - End"
PERFORMER "Animus Anima"
ISRC BEV821000007
INDEX 01 00:00:00
Any questions -> support@pro-jazz.com. По всем вопросам пишите -> support@pro-jazz.com
21:36
153
Нет комментариев. Ваш будет первым!